<?xml version="1.0" standalone="no"?>
<!DOCTYPE svg PUBLIC "-//W3C//DTD SVG 1.1//EN" "http://www.w3.org/Graphics/SVG/1.1/DTD/svg11.dtd" >
<svg>
<metadata>
Created by FontForge 20090914 at Sat Sep  5 10:56:39 2015
 By www-data
2001 T.26 Digital Type Foundry www.t26.com PSID#5117021 designer: Fulvio Bisca updated 2004 by Silas Dilworth
</metadata>
<defs>
<font id="AntitledRegular" horiz-adv-x="577" >
  <font-face 
    font-family="AntitledRegular"
    font-weight="400"
    font-stretch="normal"
    units-per-em="1000"
    panose-1="0 0 4 0 0 0 0 0 0 0"
    ascent="800"
    descent="-200"
    x-height="475"
    cap-height="725"
    bbox="-26 -229.022 794 957"
    underline-thickness="20"
    underline-position="-123"
    unicode-range="U+0020-U+F002"
  />
<missing-glyph horiz-adv-x="500" 
d="M63 0v760h375v-760h-375zM125 63h250v635h-250v-635z" />
    <glyph glyph-name=".notdef" horiz-adv-x="500" 
d="M63 0v760h375v-760h-375zM125 63h250v635h-250v-635z" />
    <glyph glyph-name="space" unicode=" " horiz-adv-x="218" 
 />
    <glyph glyph-name="exclam" unicode="!" horiz-adv-x="272" 
d="M181 188h-90v537h90v-537zM197 49c0 -16 -6 -29.833 -18 -41.5s-26.333 -17.5 -43 -17.5s-31 5.83301 -43 17.5s-18 25.5 -18 41.5s6 29.833 18 41.5s26.333 17.5 43 17.5s31 -5.83301 43 -17.5s18 -25.5 18 -41.5z" />
    <glyph glyph-name="quotedbl" unicode="&#x22;" horiz-adv-x="375" 
d="M330 676l-2.5 -11.5c-1.66699 -7.66699 -12.5 -66.167 -32.5 -175.5h-54c-10.667 54 -21.667 112.667 -33 176v11c0 16 5.83301 29.833 17.5 41.5s26.167 17.5 43.5 17.5c16.667 0 31 -5.83301 43 -17.5s18 -25.5 18 -41.5zM167 676c0 -2 -0.333008 -5.66699 -1 -11
c-1.33301 -8 -12 -66.667 -32 -176h-55l-33 176c-0.666992 3.33301 -1 7 -1 11c0 16 6 29.833 18 41.5s26.333 17.5 43 17.5s31 -5.83301 43 -17.5s18 -25.5 18 -41.5z" />
    <glyph glyph-name="numbersign" unicode="#" horiz-adv-x="583" 
d="M528 446h-85l-17 -161h78v-73h-86l-22 -217l-83 9l22 208h-119l-23 -217l-82 9l22 208h-78v73h86l17 161h-78v72h86l22 216l83 -8l-22 -208h118l23 216l82 -8l-22 -208h78v-72zM360 446h-119l-17 -161h119z" />
    <glyph glyph-name="dollar" unicode="$" horiz-adv-x="482" 
d="M437 178c0 -45.333 -14.3301 -85 -42.9971 -119s-65.667 -55.333 -111 -64v-131h-80v129c-66.667 5.33301 -119.334 41 -158.001 107l60 42c9.33301 -12 19.666 -23 30.999 -33c26.667 -23.333 56.667 -35.666 90 -36.999c32 -2 60.5 7 85.5 27s37.5 46.333 37.5 79
c0 36.667 -16.333 69.667 -49 99c-12 11.333 -45.667 35 -101 71c-48.667 31.333 -83.334 59 -104.001 83c-30 36.667 -45 79 -45 127c0 41.333 14.833 78.166 44.5 110.499s65.834 53.166 108.501 62.499v130h79v-129c55.333 -8.66699 101.333 -36 138 -82l-53 -50
c-30.667 28 -59 45 -85 51c-10.667 2.66699 -22 4 -34 4h-2c-28 0 -52.667 -9.33301 -74 -28s-32 -41.667 -32 -69c0 -33.333 12.333 -62.333 37 -87c13.333 -14 40.666 -34 81.999 -60c61.333 -39.333 102 -69.666 122 -90.999c37.333 -40 56 -87.333 56 -142z" />
    <glyph glyph-name="percent" unicode="%" horiz-adv-x="713" 
d="M325 540c0 -24.667 -1 -49.6689 -3 -75.002c-2.66699 -34 -17.167 -62.5 -43.5 -85.5s-57.5 -34.5 -93.5 -34.5s-67 11.333 -93 34s-40.333 51.334 -43 86.001c-2.66699 30 -4 55 -4 75c0 28.667 1.33301 54.334 4 77.001c4 33.333 19 61.333 45 84s56.333 34 91 34
c35.333 0 66 -11.167 92 -33.5s41 -50.5 45 -84.5c2 -17.333 3 -43 3 -77zM550 708.998l-322 -722l-65 29l323 722zM668 185.998c0 -21.333 -1.00098 -46.667 -3.00098 -76c-3.33301 -34 -18 -62.5 -44 -85.5s-57 -34.5 -93 -34.5s-67 11.5 -93 34.5s-40.333 51.5 -43 85.5
c-2.66699 30.667 -4 56 -4 76c0 28 1.33301 53.333 4 76c4 33.333 18.833 61.5 44.5 84.5s56.167 34.5 91.5 34.5s65.833 -11.333 91.5 -34s40.834 -51 45.501 -85c2 -20 3 -45.333 3 -76zM253.999 539.997c0 26.667 -1.33301 51.001 -4 73.001
c-2 15.333 -9.33301 28.666 -22 39.999s-27 17 -43 17c-16.667 0 -31 -5.83301 -43 -17.5s-19.167 -26.167 -21.5 -43.5s-3.5 -40.333 -3.5 -69c0 -30 1.33301 -52.667 4 -68c2 -17.333 9 -32 21 -44s26.333 -18 43 -18c17.333 0 32 6 44 18s19.167 27 21.5 45
s3.5 40.333 3.5 67zM596.999 185.998c0 26 -1.33203 50 -3.99902 72c-2 15.333 -9.5 28.666 -22.5 39.999s-27.167 17 -42.5 17c-17.333 0 -31.833 -5.66699 -43.5 -17s-18.667 -25.666 -21 -42.999s-3.5 -40.333 -3.5 -69c0 -30.667 1.33301 -53.667 4 -69
c2 -17.333 9 -31.833 21 -43.5s26.333 -17.5 43 -17.5s31.167 5.83301 43.5 17.5s19.666 26.5 21.999 44.5s3.5 40.667 3.5 68z" />
    <glyph glyph-name="ampersand" unicode="&#x26;" horiz-adv-x="667" 
d="M612 264l-91.9961 0.00195312c-0.666992 -37.333 -2.33398 -66.333 -5.00098 -87c-6.66699 -54 -30.834 -98.667 -72.501 -134s-90.834 -53 -147.501 -53c-64.667 0 -120.834 20.5 -168.501 61.5s-71.5 90.5 -71.5 148.5c0 37.333 10.5 72 31.5 104s49.167 57 84.5 75
c-66.667 38 -100 91.667 -100 161c0 53.333 21.167 99.166 63.5 137.499s92.5 57.5 150.5 57.5c70 0 128.667 -28.667 176 -86l-52 -51c-10.667 10.667 -21.667 20 -33 28c-26.667 19.333 -56.667 29 -90 29c-34 0 -63.167 -11.833 -87.5 -35.5s-36.5 -51.834 -36.5 -84.501
s11.333 -59.667 34 -81c17.333 -16.667 38.333 -27.667 63 -33c18 -4 45 -6 81 -6v-76c-38 0 -66.333 -2 -85 -6c-26.667 -6 -49.334 -17.667 -68.001 -35c-27.333 -25.333 -41 -56.333 -41 -93c0 -36 15 -67.167 45 -93.5s65 -39.5 105 -39.5
c54.667 0 92.334 24 113.001 72c14 32 21 79.333 21 142v58h182v-80z" />
    <glyph glyph-name="quotesingle" unicode="'" horiz-adv-x="232" 
d="M177 676c0 -2 -0.333008 -5.66699 -1 -11c-1.33301 -8 -12 -66.667 -32 -176h-55l-33 176c-0.666992 3.33301 -1 7 -1 11c0 16 6 29.833 18 41.5s26.333 17.5 43 17.5s31 -5.83301 43 -17.5s18 -25.5 18 -41.5z" />
    <glyph glyph-name="parenleft" unicode="(" horiz-adv-x="372" 
d="M307 -186l-51 -41.998c-127.333 140 -191 301.667 -191 485s63.667 345 191 485l51 -42c-106 -130.667 -159 -278.334 -159 -443.001s53 -312.334 159 -443.001z" />
    <glyph glyph-name="parenright" unicode=")" horiz-adv-x="372" 
d="M307 257c0 -183.333 -63.667 -345.002 -191 -485.002l-51 42c106 130.667 159 278.334 159 443.001s-53 312.334 -159 443.001l51 42c127.333 -140 191 -301.667 191 -485z" />
    <glyph glyph-name="asterisk" unicode="*" horiz-adv-x="382" 
d="M327 556l-34 -55l-77 51l8 -89h-67l8 89l-77 -51l-33 55l84 38l-84 38l33 55l77 -50l-8 88h67l-8 -88l77 50l34 -55l-85 -38z" />
    <glyph glyph-name="plus" unicode="+" horiz-adv-x="538" 
d="M473 197h-159v-163h-90v163h-159v83h159v162h90v-162h159v-83z" />
    <glyph glyph-name="comma" unicode="," horiz-adv-x="257" 
d="M192 39c0 -68 -31.668 -127.332 -95.001 -177.999l-32 31c25.333 33.333 39 68 41 104c-25.333 9.33301 -38 27 -38 53c0 16 5.83301 29.833 17.5 41.5s26.167 17.5 43.5 17.5c18.667 0 33.834 -6.83301 45.501 -20.5s17.5 -29.834 17.5 -48.501z" />
    <glyph glyph-name="hyphen" unicode="-" horiz-adv-x="340" 
d="M285 204h-230v81h230v-81z" />
    <glyph glyph-name="hyphen" unicode="&#x2010;" horiz-adv-x="340" 
d="M285 204h-230v81h230v-81z" />
    <glyph glyph-name="period" unicode="." horiz-adv-x="252" 
d="M187 49c0 -16 -6 -29.833 -18 -41.5s-26.333 -17.5 -43 -17.5s-31 5.83301 -43 17.5s-18 25.5 -18 41.5s6 29.833 18 41.5s26.333 17.5 43 17.5s31 -5.83301 43 -17.5s18 -25.5 18 -41.5z" />
    <glyph glyph-name="slash" unicode="/" horiz-adv-x="422" 
d="M367 710l-234 -721l-78 26l234 721z" />
    <glyph glyph-name="zero" unicode="0" horiz-adv-x="544" 
d="M489 363c0 -92 -2 -154.333 -6 -187c-6.66699 -54 -29.834 -98.5 -69.501 -133.5s-86.834 -52.5 -141.501 -52.5s-101.834 17.5 -141.501 52.5s-62.834 79.5 -69.501 133.5c-4 32.667 -6 95 -6 187s2 154.333 6 187c6.66699 53.333 29.834 97.5 69.501 132.5
s86.834 52.5 141.501 52.5s101.834 -17.5 141.501 -52.5s62.834 -79.167 69.501 -132.5c4 -32.667 6 -95 6 -187zM399 363c0 84 -2.33301 145.333 -7 184c-4 30.667 -17.333 56.334 -40 77.001s-49.334 31 -80.001 31s-57.334 -10.333 -80.001 -31s-36 -46.334 -40 -77.001
c-4.66699 -38.667 -7 -100 -7 -184c0 -84.667 2.33301 -146 7 -184c4 -31.333 17.333 -57.333 40 -78s49.334 -31 80.001 -31s57.334 10.333 80.001 31s36 46.667 40 78c4.66699 38 7 99.333 7 184z" />
    <glyph glyph-name="one" unicode="1" horiz-adv-x="360" 
d="M245 0h-90v645h-100v80h190v-725z" />
    <glyph glyph-name="two" unicode="2" horiz-adv-x="485" 
d="M430 0h-380.998c-0.666992 4 -1.5 16.833 -2.5 38.5s-1.5 33.167 -1.5 34.5c-2.66699 54.667 15.666 109.667 54.999 165c21.333 29.333 63 74.333 125 135c40.667 40 67.334 68.333 80.001 85c22.667 31.333 34 64 34 98c0 28.667 -10.333 52 -31 70s-46 27.333 -76 28
c-43.333 0.666992 -84.333 -18 -123 -56l-52 51c47.333 57.333 106.666 86 177.999 86c51.333 0 96.666 -17.667 135.999 -53s59 -77 59 -125c0 -50 -18.333 -99.333 -55 -148c-18 -24.667 -56.333 -64.667 -115 -120c-84 -80 -126 -149.667 -126 -209h296v-80z" />
    <glyph glyph-name="three" unicode="3" horiz-adv-x="523" 
d="M468 200c0 -57.333 -22.8301 -106.669 -68.4971 -148.002s-99.834 -62 -162.501 -62c-12.667 0 -24.667 0.666992 -36 2c-70 10.667 -125.333 49.334 -166 116.001l61 41c10 -12.667 20 -23.667 30 -33c28.667 -29.333 65.667 -44 111 -44c37.333 0 69.833 13 97.5 39
s41.5 57.333 41.5 94s-13.333 67.667 -40 93c-18.667 17.333 -41.334 29 -68.001 35c-18.667 4 -47 6 -85 6v76c68 0 116 13.333 144 40c22.667 21.333 34 48.333 34 81c0 32 -12.333 59.833 -37 83.5s-53.667 35.5 -87 35.5s-63.333 -9.66699 -90 -29
c-11.333 -8 -22 -17.333 -32 -28l-53 51c48 57.333 106.333 86 175 86c58 0 108.333 -19 151 -57s64 -83.667 64 -137c0 -33.333 -9.33301 -64.666 -28 -93.999s-43.334 -52 -74.001 -68c35.333 -16.667 63.833 -41.167 85.5 -73.5s32.5 -67.5 32.5 -105.5z" />
    <glyph glyph-name="four" unicode="4" horiz-adv-x="543" 
d="M498 149h-92v-149h-90l2 149h-273v81l283 495h78v-496h92v-80zM333 596h-1c-8.66699 -31.333 -26.667 -73.333 -54 -126l-133 -241h174l5 224c0 30 3 77.667 9 143z" />
    <glyph glyph-name="five" unicode="5" horiz-adv-x="514" 
d="M459 234c0 -28.667 -1.66895 -52.666 -5.00195 -71.999c-10 -50 -34.333 -91.167 -73 -123.5s-84 -48.5 -136 -48.5c-17.333 0 -29.666 0.333008 -36.999 1c-70 10.667 -124.333 50 -163 118l64 38c10 -13.333 19 -24 27 -32c22.667 -23.333 50 -37.333 82 -42
c6.66699 -1.33301 15.667 -2 27 -2c29.333 0 54.5 9 75.5 27s34.833 41 41.5 69c4.66699 18.667 7 41 7 67c0 27.333 -2 49.666 -6 66.999c-6.66699 28 -20.667 51 -42 69s-46.666 27 -75.999 27c-53.333 0 -92.333 -24.333 -117 -73l-81 19l38 382h323v-80h-240l-26 -206
c26.667 26 61 39 103 39c53.333 0 98.833 -15.667 136.5 -47s61.5 -72.333 71.5 -123c4 -22 6 -46.667 6 -74z" />
    <glyph glyph-name="six" unicode="6" horiz-adv-x="531" 
d="M486 234c0 -30.667 -1.66602 -54.999 -4.99902 -72.999c-9.33301 -50 -33.5 -91 -72.5 -123s-84.5 -48 -136.5 -48c-55.333 0 -102.5 17.667 -141.5 53s-61.833 80 -68.5 134c-4.66699 37.333 -7 99.333 -7 186c0 82.667 2.66699 144.667 8 186
c6 50.667 26.667 93 62 127s78.666 53.333 129.999 58c13.333 1.33301 24.666 1.66602 33.999 0.999023c68 -3.33301 125 -35 171 -95l-54 -48l-30 27c-32.667 26 -67.667 38 -105 36c-31.333 -1.33301 -57.333 -12 -78 -32s-33.667 -44.667 -39 -74
c-6 -34 -9.33301 -76.667 -10 -128c33.333 38 76 57 128 57c52.667 0 98.334 -16 137.001 -48s62.667 -73 72 -123c3.33301 -18 5 -42.333 5 -73zM396.001 234.001c0 27.333 -2 50.333 -6 69c-6 27.333 -20.167 50 -42.5 68s-47.5 27 -75.5 27s-53 -9 -75 -27
s-36 -40.667 -42 -68c-4 -18.667 -6 -41.667 -6 -69s2 -50 6 -68c6 -28 20 -51 42 -69s47 -27 75 -27s53.167 9 75.5 27s36.5 41 42.5 69c4 18 6 40.667 6 68z" />
    <glyph glyph-name="seven" unicode="7" horiz-adv-x="486" 
d="M441 711c0 -46 -10.666 -90.333 -31.999 -133c-10.667 -21.333 -36.334 -61.666 -77.001 -120.999c-28.667 -40.667 -49 -72.334 -61 -95.001c-22 -39.333 -34.667 -74 -38 -104c-4 -32.667 -6 -93 -6 -181v-77h-90v77c0 86.667 1 140.667 3 162
c8.66699 82 49 170.667 121 266c40 53.333 66 100 78 140h-294v80h396v-14z" />
    <glyph glyph-name="eight" unicode="8" horiz-adv-x="572" 
d="M517 200c0 -58 -22.8311 -107.5 -68.498 -148.5s-99.834 -61.5 -162.501 -61.5s-116.834 20.5 -162.501 61.5s-68.5 90.5 -68.5 148.5c0 37.333 10.5 72 31.5 104s49.167 57 84.5 75c-66.667 38.667 -100 92.667 -100 162c0 53.333 21.167 99 63.5 137
s92.833 57 151.5 57s109.167 -19 151.5 -57s63.5 -83.667 63.5 -137c0 -69.333 -33.333 -123.333 -100 -162c34.667 -18 62.667 -43 84 -75s32 -66.667 32 -104zM410.002 537c0 32 -12.167 59.667 -36.5 83s-53.5 35 -87.5 35s-63.167 -11.667 -87.5 -35
s-36.5 -51 -36.5 -83c0 -32.667 12.333 -60.667 37 -84s53.667 -35 87 -35s62.333 11.667 87 35s37 51.333 37 84zM425.002 204c0 36 -13.833 67.167 -41.5 93.5s-60.167 39.5 -97.5 39.5s-69.833 -13.167 -97.5 -39.5s-41.5 -57.5 -41.5 -93.5s13.667 -67 41 -93
s60 -39 98 -39s70.667 13 98 39s41 57 41 93z" />
    <glyph glyph-name="nine" unicode="9" horiz-adv-x="531" 
d="M476 362c0 -88.667 -2 -150.671 -6 -186.004c-6.66699 -52.667 -28.667 -96.167 -66 -130.5s-82.666 -52.833 -135.999 -55.5c-11.333 -0.666992 -22.333 -0.666992 -33 0c-65.333 6 -119.333 37.667 -162 95l54 48c6.66699 -7.33301 16.667 -16.666 30 -27.999
c33.333 -26 69.666 -37.333 108.999 -34c30 2 54.833 12.833 74.5 32.5s32.167 44.667 37.5 75s8.33301 72.5 9 126.5c-33.333 -38 -76 -57 -128 -57c-52.667 0 -98.167 15.833 -136.5 47.5s-62.166 72.834 -71.499 123.501c-4 21.333 -6 45.333 -6 72s2 51 6 73
c9.33301 50 33.333 91 72 123s84 48 136 48c55.333 0 102.666 -17.667 141.999 -53s62.333 -79.666 69 -132.999c4 -35.333 6 -97.666 6 -186.999zM383 490.996c0 28 -2 51 -6 69c-6 27.333 -20.167 50 -42.5 68s-47.5 27 -75.5 27s-53 -9 -75 -27s-36 -40.667 -42 -68
c-4 -16.667 -6 -39.667 -6 -69s2 -52 6 -68c6 -28 20 -50.833 42 -68.5s47 -26.5 75 -26.5s53.167 8.83301 75.5 26.5s36.5 40.5 42.5 68.5c4 18 6 40.667 6 68z" />
    <glyph glyph-name="colon" unicode=":" horiz-adv-x="252" 
d="M187 369c0 -16 -6 -29.833 -18 -41.5s-26.333 -17.5 -43 -17.5s-31 5.83301 -43 17.5s-18 25.5 -18 41.5s6 29.833 18 41.5s26.333 17.5 43 17.5s31 -5.83301 43 -17.5s18 -25.5 18 -41.5zM187 49c0 -16 -6 -29.833 -18 -41.5s-26.333 -17.5 -43 -17.5
s-31 5.83301 -43 17.5s-18 25.5 -18 41.5s6 29.833 18 41.5s26.333 17.5 43 17.5s31 -5.83301 43 -17.5s18 -25.5 18 -41.5z" />
    <glyph glyph-name="semicolon" unicode=";" horiz-adv-x="257" 
d="M190 369c0 -16 -6 -29.833 -18 -41.5s-26.333 -17.5 -43 -17.5s-31 5.83301 -43 17.5s-18 25.5 -18 41.5s6 29.833 18 41.5s26.333 17.5 43 17.5s31 -5.83301 43 -17.5s18 -25.5 18 -41.5zM192 39c0 -68 -31.668 -127.332 -95.001 -177.999l-32 31
c25.333 33.333 39 68 41 104c-25.333 9.33301 -38 27 -38 53c0 16 6 29.833 18 41.5s26.333 17.5 43 17.5c18.667 0 33.834 -6.83301 45.501 -20.5s17.5 -29.834 17.5 -48.501z" />
    <glyph glyph-name="less" unicode="&#x3c;" horiz-adv-x="474" 
d="M419 43l-65 -53l-299 369l299 369l65 -53l-257 -316z" />
    <glyph glyph-name="equal" unicode="=" horiz-adv-x="569" 
d="M514 278h-459v81h459v-81zM514 131h-459v81h459v-81z" />
    <glyph glyph-name="greater" unicode="&#x3e;" horiz-adv-x="474" 
d="M419 359l-299 -369l-65 53l257 316l-257 316l65 53z" />
    <glyph glyph-name="question" unicode="?" horiz-adv-x="483" 
d="M428 559c0 -36 -11.667 -69.6699 -35 -101.003c-15.333 -20 -40 -43.667 -74 -71c-46.667 -37.333 -71.667 -72.333 -75 -105c-2 -16.667 -3 -48 -3 -94h-90c0 48 1.66699 82 5 102c3.33301 22.667 9 42.667 17 60c15.333 33.333 44.333 66.333 87 99
c52 40 78 76.333 78 109c0 28.667 -10.5 51.834 -31.5 69.501s-46.167 26.834 -75.5 27.501c-43.333 0.666992 -84.333 -17.666 -123 -54.999l-53 51c47.333 57.333 107 86 179 86c51.333 0 96.5 -17.667 135.5 -53s58.5 -77 58.5 -125zM257 48.9971
c0 -16 -6 -29.833 -18 -41.5s-26.333 -17.5 -43 -17.5c-17.333 0 -31.833 5.83301 -43.5 17.5s-17.5 25.5 -17.5 41.5s5.83301 29.833 17.5 41.5s26.167 17.5 43.5 17.5c16.667 0 31 -5.83301 43 -17.5s18 -25.5 18 -41.5z" />
    <glyph glyph-name="at" unicode="@" horiz-adv-x="830" 
d="M785 383c0 -66.667 -19.0029 -119.333 -57.0029 -158c-32.667 -32 -70 -48 -112 -48c-14 0 -26.667 1.66699 -38 5c-27.333 8 -46.666 22.333 -57.999 43c-27.333 -36 -65.666 -54 -114.999 -54c-44 0 -80.833 14.333 -110.5 43s-46.5 64.667 -50.5 108
c-2 14 -2.66699 28 -2 42c0 10 0.666992 24 2 42c4 42.667 21 78.167 51 106.5s66.333 43.166 109 44.499c38.667 0.666992 74 -13.333 106 -42c6.66699 16 14 27.333 22 34c0.666992 0.666992 4.33398 3.66699 11.001 9l56 -39c-2 -4 -4.33301 -8 -7 -12
c-14.667 -24 -22.667 -55 -24 -93c-0.666992 -12 -0.666992 -26.667 0 -44c-0.666992 -6 -0.666992 -17 0 -33c2 -58 18 -86.667 48 -86c20.667 0 40.334 9.66699 59.001 29c23.333 25.333 35 59.333 35 102c0 82 -28 149.5 -84 202.5s-125.667 79.5 -209 79.5
c-82.667 0 -152.667 -29.333 -210 -88s-86 -129.667 -86 -213s28.667 -154.333 86 -213s127.333 -88 210 -88c70.667 0 132.667 22.333 186 67l44 -57c-66.667 -54.667 -143.334 -82 -230.001 -82c-102.667 0 -190.334 36.5 -263.001 109.5s-109 160.833 -109 263.5
s36.333 190.334 109 263.001s160.334 109 263.001 109c103.333 0 190.5 -33.5 261.5 -100.5s106.5 -150.833 106.5 -251.5zM489.997 364.001c0 16 -0.333008 28.3311 -1 36.998c-3.33301 24 -12.666 44 -27.999 60s-34 24 -56 24c-22.667 0 -41.5 -8 -56.5 -24
s-23.833 -36 -26.5 -60c-1.33301 -11.333 -2 -23.666 -2 -36.999c0 -80.667 28.333 -121 85 -121c22 0 40.667 7.83301 56 23.5s24.666 35.834 27.999 60.501c0.666992 8.66699 1 21 1 37z" />
    <glyph glyph-name="A" unicode="A" 
d="M547 18l-88 -27l-59 202h-223l-58 -202l-89 27l220 707h77zM376 273l-73.001 254c-9.33301 33.333 -13.666 57 -12.999 71h-2c0 -14 -4.33301 -37.667 -13 -71l-74 -254h175z" />
    <glyph glyph-name="B" unicode="B" horiz-adv-x="508" 
d="M458 205c0 -54.667 -19.668 -100.833 -59.001 -138.5s-88 -58.834 -146 -63.501c-46 -4 -104.667 -5 -176 -3c-6.66699 0 -12.334 0.666992 -17.001 2v722c2.66699 0.666992 8.33398 1 17.001 1c64.667 2 120 1.33301 166 -2c54.667 -4.66699 100.834 -25 138.501 -61
s56.5 -80 56.5 -132c0 -72.667 -31 -123.667 -93 -153c34 -14.667 61.333 -37.167 82 -67.5s31 -65.166 31 -104.499zM347.999 529.001c0 32 -10 58.3311 -30 78.998s-45.333 32.667 -76 36c-26 2 -56.667 2.33301 -92 1v-232c50 0 80.667 0.333008 92 1
c30.667 2.66699 56 14.334 76 35.001s30 47.334 30 80.001zM366.999 207.999c0 35.333 -10.8311 64.3311 -32.498 86.998s-48.834 35.334 -81.501 38.001c-20 2 -54.333 3 -103 3v-255c38.667 -1.33301 73 -0.666016 103 2.00098c33.333 2.66699 60.666 15.167 81.999 37.5
s32 51.5 32 87.5z" />
    <glyph glyph-name="C" unicode="C" horiz-adv-x="502" 
d="M472 94c-18 -32 -43.668 -57.334 -77.001 -76.001s-69.666 -28 -108.999 -28c-60.667 0 -112.667 19.333 -156 58s-68 87.667 -74 147c-4 38 -6 94 -6 168c0 78.667 2 134.667 6 168c7.33301 59.333 32.5 108.166 75.5 146.499s94.5 57.5 154.5 57.5
c70 0 126.333 -27.667 169 -83l-56 -49l-11 11c-28 26.667 -62 40 -102 40c-36.667 0 -68 -11.667 -94 -35s-41.167 -53.166 -45.5 -89.499s-6.5 -91.833 -6.5 -166.5s2.33301 -129.667 7 -165c4 -37.333 19 -67.833 45 -91.5s57.333 -35.5 94 -35.5c46 0 83.333 17 112 51
c2.66699 2.66699 6.66699 7.33398 12 14.001z" />
    <glyph glyph-name="D" unicode="D" horiz-adv-x="530" 
d="M480 363c0 -79.333 -2.00098 -135.332 -6.00098 -167.999c-7.33301 -55.333 -28.666 -99.833 -63.999 -133.5s-81 -53.167 -137 -58.5c-48.667 -4.66699 -114 -5.66699 -196 -3c-5.33301 0 -11 0.666992 -17 2v722c2.66699 0.666992 8.33398 1 17.001 1
c84.667 3.33301 150 2.66602 196 -2.00098c56 -5.33301 101.667 -24.833 137 -58.5s56.666 -78.167 63.999 -133.5c4 -32.667 6 -88.667 6 -168zM389.999 363.001c0 67.333 -2.33301 121 -7 161c-7.33301 69.333 -46 109 -116 119c-24 3.33301 -63 4 -117 2v-564
c54 -2.66699 93 -2 117 2c70 10 108.667 49.667 116 119c4.66699 40 7 93.667 7 161z" />
    <glyph glyph-name="E" unicode="E" horiz-adv-x="464" 
d="M414 0h-354v725h344v-80h-254v-231h234v-80h-234v-254h264v-80z" />
    <glyph glyph-name="F" unicode="F" horiz-adv-x="424" 
d="M384 645h-234v-231h214v-80h-214v-334h-90v725h324v-80z" />
    <glyph glyph-name="G" unicode="G" horiz-adv-x="517" 
d="M467 75c-44.667 -56.667 -105.001 -84.998 -181.001 -84.998c-60.667 0 -112.5 19.333 -155.5 58s-67.5 87.667 -73.5 147c-4.66699 41.333 -7 97.333 -7 168c0 76 2.33301 132 7 168c6.66699 59.333 31.5 108.166 74.5 146.499s94.5 57.5 154.5 57.5
c70.667 0 127.334 -27.667 170.001 -83l-56 -49l-11 11c-28.667 26.667 -63 40 -103 40c-36.667 0 -68 -11.833 -94 -35.5s-41 -53.834 -45 -90.501c-4 -32.667 -6 -87.667 -6 -165s2 -132.333 6 -165c4 -37.333 19 -67.833 45 -91.5s57.333 -35.5 94 -35.5
c36 0 66.333 11 91 33v155h-96v80h186v-264z" />
    <glyph glyph-name="H" unicode="H" horiz-adv-x="556" 
d="M496 0h-90v334h-256v-334h-90v725h90v-311h256v311h90v-725z" />
    <glyph glyph-name="I" unicode="I" horiz-adv-x="230" 
d="M160 0h-90v725h90v-725z" />
    <glyph glyph-name="J" unicode="J" horiz-adv-x="434" 
d="M374 265c0 -33.333 -1.66699 -69.667 -5 -109c-4 -47.333 -24 -86.833 -60 -118.5s-79 -47.5 -129 -47.5c-63.333 0 -112.333 27.667 -147 83c-1.33301 2 -2.33301 4 -3 6l61 43c28 -34 57.667 -51 89 -51c26 0 48.333 9.5 67 28.5s29.5 42 32.5 69s4.5 58.5 4.5 94.5
v462h90v-460z" />
    <glyph glyph-name="K" unicode="K" horiz-adv-x="517" 
d="M487 46l-71 -55l-266 355v-346h-90v725h90v-337l252 346l69 -50l-237 -317z" />
    <glyph glyph-name="L" unicode="L" horiz-adv-x="424" 
d="M384 0h-324v725h90v-645h234v-80z" />
    <glyph glyph-name="M" unicode="M" horiz-adv-x="607" 
d="M547 0l-90 0.000976562l4 440c0 14.667 5 59.667 15 135h-1c-12.667 -59.333 -25.667 -105.666 -39 -138.999l-102 -248h-62l-101 248c-14 33.333 -27.333 79.666 -40 138.999h-1c5.33301 -29.333 10.666 -74.333 15.999 -135l4 -440h-90v725h80l145 -369
c6 -16 12 -40.333 18 -73h1c0.666992 15.333 6.33398 39.666 17.001 72.999l147 369h79v-725z" />
    <glyph glyph-name="N" unicode="N" horiz-adv-x="527" 
d="M467 0l-80 -0.000976562l-206 444c-24 51.333 -39.667 96.333 -47 135h-2c4 -29.333 8.33301 -74.333 13 -135l5 -444h-90v725h80l205 -443c24 -51.333 39.667 -96.333 47 -135h2c-4 28.667 -8 73.334 -12 134.001l-5 444h90v-725z" />
    <glyph glyph-name="O" unicode="O" horiz-adv-x="573" 
d="M523 363c0 -78.667 -2.00195 -134.333 -6.00195 -167c-7.33301 -60 -32.666 -109.333 -75.999 -148s-94.666 -58 -153.999 -58c-60 0 -111.667 19.333 -155 58s-68.333 88 -75 148c-4.66699 35.333 -7 91 -7 167s2.33301 132 7 168
c6.66699 59.333 31.5 108.166 74.5 146.499s94.833 57.5 155.5 57.5c60 0 111.5 -19.167 154.5 -57.5s68.167 -87.166 75.5 -146.499c4 -33.333 6 -89.333 6 -168zM432.998 363.001c0 74.667 -2.33301 130 -7 166s-20 65.833 -46 89.5s-57 35.5 -93 35.5
c-36.667 0 -68 -11.833 -94 -35.5s-41.167 -53.5 -45.5 -89.5s-6.5 -91.333 -6.5 -166s2 -129.667 6 -165c4.66699 -37.333 20 -67.833 46 -91.5s57.333 -35.5 94 -35.5c36 0 67 11.833 93 35.5s41.333 54.167 46 91.5c4.66699 35.333 7 90.333 7 165z" />
    <glyph glyph-name="P" unicode="P" horiz-adv-x="496" 
d="M456 513c0 -58.667 -19.668 -107.667 -59.001 -147s-88.333 -61.333 -147 -66c-32.667 -2.66699 -66 -3.66699 -100 -3v-297h-90v723c7.33301 1.33301 13 2 17 2c73.333 2 131 1.33301 173 -2c58.667 -4.66699 107.334 -26 146.001 -64c40 -40 60 -88.667 60 -146z
M364.999 511c0 38.667 -11 70 -33 94c-20.667 22 -47.667 34.5 -81 37.5s-67 3.83301 -101 2.5v-268c48 0 81.333 0.666992 100 2c34 2.66699 61.667 15.667 83 39s32 54.333 32 93z" />
    <glyph glyph-name="Q" unicode="Q" horiz-adv-x="573" 
d="M523 363c0 -73.333 -1.99902 -129.333 -5.99902 -168c-5.33301 -50.667 -25 -94.334 -59 -131.001s-75.667 -59.667 -125 -69c16 -31.333 49.667 -49 101 -53c22.667 -2 45.667 -3 69 -3v-76c-25.333 -1.33301 -50 -1.33301 -74 0c-96 7.33301 -159 51 -189 131
c-50 10 -91.833 33.333 -125.5 70s-53.167 80.334 -58.5 131.001c-4 38.667 -6 94.667 -6 168c0 78.667 2 134.667 6 168c7.33301 59.333 32.5 108.166 75.5 146.499s94.5 57.5 154.5 57.5s111.667 -19.167 155 -57.5s68.666 -87.166 75.999 -146.499
c4 -33.333 6 -89.333 6 -168zM433.001 363c0 72 -2.33301 127.332 -7 165.999c-4.66699 36.667 -20 66.667 -46 90s-57.333 35 -94 35s-68 -11.667 -94 -35s-41.167 -53.166 -45.5 -89.499s-6.5 -91.833 -6.5 -166.5s2.33301 -129.667 7 -165c4 -37.333 19 -67.833 45 -91.5
s57.333 -35.5 94 -35.5c40.667 0 74 13.667 100 41c23.333 26 37 59.667 41 101c4 38 6 88 6 150z" />
    <glyph glyph-name="R" unicode="R" horiz-adv-x="506" 
d="M476 28l-78.999 -37.001l-149 309c-33.333 -2.66699 -66 -3.66699 -98 -3v-297h-90v723c7.33301 1.33301 13 2 17 2c70 2 127.667 1.33301 173 -2c58.667 -5.33301 107.667 -27.333 147 -66s59 -86.667 59 -144c0 -43.333 -11.333 -81.666 -34 -114.999
s-52.334 -58.333 -89.001 -75zM365.001 510.999c0 38.667 -11 70 -33 94c-20.667 22 -47.667 34.5 -81 37.5s-67 3.83301 -101 2.5v-268c48 0 81.333 0.666992 100 2c34 2.66699 61.667 15.667 83 39s32 54.333 32 93z" />
    <glyph glyph-name="S" unicode="S" horiz-adv-x="477" 
d="M432 178c0 -52.667 -18.9971 -97.167 -56.9971 -133.5s-84.667 -54.5 -140 -54.5c-86.667 0 -151.667 36.667 -195 110l60 42c8 -10 17.333 -20 28 -30c29.333 -27.333 65 -41 107 -41c27.333 0 52.166 10.333 74.499 31s33.5 46 33.5 76c0 36 -15 68 -45 96
c-13.333 12.667 -45 35.334 -95 68.001c-52.667 33.333 -89.334 62 -110.001 86c-32 37.333 -48 80.666 -48 129.999c0 48 19.5 89.5 58.5 124.5s84.167 52.5 135.5 52.5c72 -0.666992 130.667 -29 176 -85l-53 -50c-40 36.667 -80.333 55 -121 55
c-28 0 -52.667 -9.33301 -74 -28s-32 -41.667 -32 -69c0 -34.667 13.333 -65 40 -91c12 -12 41 -32.333 87 -61c57.333 -36.667 96.666 -66.667 117.999 -90c34.667 -38.667 52 -84.667 52 -138z" />
    <glyph glyph-name="T" unicode="T" horiz-adv-x="468" 
d="M433 645h-154v-645h-90v645h-154v80h398v-80z" />
    <glyph glyph-name="U" unicode="U" 
d="M517 362c0 -64 -2.33203 -119.668 -6.99902 -167.001c-6 -59.333 -29.333 -108.333 -70 -147s-91.334 -58 -152.001 -58s-111.334 19.333 -152.001 58s-63.667 87.667 -69 147c-4.66699 44 -7 99.667 -7 167v363h90v-363c0 -74 2.33301 -128.667 7 -164
c4 -38 17.833 -68.667 41.5 -92s53.5 -35 89.5 -35c40 0 71.667 13.667 95 41c20.667 24 33.334 56.667 38.001 98c4 36.667 6 87.334 6 152.001v363h90v-363z" />
    <glyph glyph-name="V" unicode="V" horiz-adv-x="539" 
d="M509 713l-200 -713h-78l-201 713l86 21l138 -518c11.333 -46 16.333 -79.333 15 -100h1c-0.666992 20.667 4.33301 54 15 100l138 518z" />
    <glyph glyph-name="W" unicode="W" horiz-adv-x="729" 
d="M699 718l-139 -718.001h-79l-102 406c-4 18.667 -8.33301 52.334 -13 101.001h-2c-0.666992 -27.333 -5.33398 -61 -14.001 -101l-102 -406h-79l-139 718l88 16l85 -488c6 -45.333 8.66699 -84.666 8 -117.999h2c0.666992 33.333 6.33398 72.666 17.001 117.999l99 388
h72l98 -388c5.33301 -21.333 11 -60.666 17 -117.999h2c-0.666992 33.333 2 72.666 8 117.999l85 488z" />
    <glyph glyph-name="X" unicode="X" horiz-adv-x="540" 
d="M510 31l-78 -40l-162 309l-162 -309l-78 40l190 344l-176 318l77 41l149 -283l149 283l76 -41l-175 -318z" />
    <glyph glyph-name="Y" unicode="Y" horiz-adv-x="540" 
d="M510 695l-195 -374v-321h-90v321l-195 374l78 39l162 -322l162 322z" />
    <glyph glyph-name="Z" unicode="Z" horiz-adv-x="516" 
d="M466 0h-406v80l302 565h-287v80h381v-80l-302 -565h312v-80z" />
    <glyph glyph-name="bracketleft" unicode="[" horiz-adv-x="300" 
d="M245 -212h-170v937h170v-73h-87v-790h87v-74z" />
    <glyph glyph-name="backslash" unicode="\" horiz-adv-x="402" 
d="M357 15l-78 -26l-234 721l78 26z" />
    <glyph glyph-name="bracketright" unicode="]" horiz-adv-x="300" 
d="M225 -212h-170v74h87v790h-87v73h170v-937z" />
    <glyph glyph-name="asciicircum" unicode="^" horiz-adv-x="328" 
d="M283 587l-37 -26l-82 94l-81 -94l-38 26l68 130c1.33301 2.66699 3 5.33398 5 8.00098h92c1.33301 -2.66699 3 -5.33398 5 -8.00098z" />
    <glyph glyph-name="underscore" unicode="_" horiz-adv-x="490" 
d="M475 -212h-460v81h460v-81z" />
    <glyph glyph-name="grave" unicode="`" horiz-adv-x="266" 
d="M211 545l-36 -26l-105 100c-10 9.33301 -15 21 -15 35c0 16.667 6.66699 30 20 40c9.33301 6 19.333 9 30 9c20 0 34.333 -9 43 -27c4 -6 25 -49.667 63 -131z" />
    <glyph glyph-name="a" unicode="a" horiz-adv-x="445" 
d="M420 29l-60.001 -38c-2 1.33301 -4.33301 3.33301 -7 6c-14.667 11.333 -24.334 25.666 -29.001 42.999c-29.333 -33.333 -67.333 -50 -114 -50c-50 0 -90.833 13.667 -122.5 41s-47.5 62.666 -47.5 105.999c0 60.667 26 105.334 78 134.001c41.333 22.667 95 34 161 34
h23c0 8.66699 -0.666992 19.667 -2 33c-4 22 -14.333 39.833 -31 53.5s-35.667 20.5 -57 20.5c-27.333 0 -55.666 -12.333 -84.999 -37l-49 44c12 20 31.333 36.333 58 49c24.667 11.333 50 17 76 17c44.667 0 83 -14.167 115 -42.5s50.667 -63.833 56 -106.5
c3.33301 -30.667 5 -62.667 5 -96v-108c2.66699 -35.333 11.334 -65.666 26.001 -90.999c0 -1.33301 2 -5.33301 6 -12zM305.999 233l-23 -0.000976562c-106 0 -159 -31.667 -159 -95c0 -22 7.83301 -40 23.5 -54s36.834 -21 63.501 -21c22.667 0 42.667 7.33301 60 22
s27.666 33.334 30.999 56.001c2.66699 20 4 50.667 4 92z" />
    <glyph glyph-name="b" unicode="b" horiz-adv-x="454" 
d="M409 238c0 -38 -1.33301 -70.6689 -4 -98.002c-4 -42.667 -22.333 -78.5 -55 -107.5s-70.667 -43.167 -114 -42.5c-46 0.666992 -81 18.667 -105 54c-2.66699 -18 -11 -33 -25 -45l-10 -8l-61 41l7 11c16 26 24 55.667 24 89v593h82v-281
c20.667 26.667 50 40.334 88 41.001c43.333 0.666992 81.333 -13.5 114 -42.5s51 -64.833 55 -107.5c2.66699 -27.333 4 -59.666 4 -96.999zM327 237.998c0 43.333 -1.33203 74.6689 -3.99902 94.002c-2.66699 23.333 -12.334 42.666 -29.001 57.999s-36 23 -58 23
c-22.667 0 -42 -7.5 -58 -22.5s-25 -34.167 -27 -57.5c-2 -27.333 -3 -58.333 -3 -93c0 -36.667 1 -69 3 -97c1.33301 -24 10.166 -43.333 26.499 -58s35.833 -22 58.5 -22c22 0 41.333 7.66699 58 23s26.334 34.666 29.001 57.999c2.66699 18.667 4 50 4 94z" />
    <glyph glyph-name="c" unicode="c" horiz-adv-x="384" 
d="M359 71c-0.666992 -0.666992 -2.33301 -3 -5 -7c-32 -49.333 -76 -74 -132 -74c-46 0 -85.333 14.167 -118 42.5s-50.667 64.166 -54 107.499c-3.33301 38.667 -5 71.334 -5 98.001c0 38 1.66699 70.667 5 98c5.33301 43.333 24.166 79 56.499 107s70.833 42 115.5 42
c47.333 0 87.333 -19 120 -57c2.66699 -4 4.33398 -6.33301 5.00098 -7l-53 -43c-26 24 -50 36 -72 36c-23.333 0 -43.333 -8.5 -60 -25.5s-26.5 -37.167 -29.5 -60.5s-4.5 -54 -4.5 -92c0 -39.333 1.5 -70.5 4.5 -93.5s12.667 -42 29 -57s36.5 -22.5 60.5 -22.5
c28 0 54.667 15.333 80 46z" />
    <glyph glyph-name="d" unicode="d" horiz-adv-x="444" 
d="M419 32l-60 -40.999l-10 8c-13.333 11.333 -21.333 26.333 -24 45c-24.667 -35.333 -60 -53.333 -106 -54c-43.333 -0.666992 -81.333 13.5 -114 42.5s-51 64.833 -55 107.5c-3.33301 34 -5 66.667 -5 98c0 30.667 1.66699 63 5 97c4 42.667 22.333 78.5 55 107.5
s70.667 43.167 114 42.5c37.333 -0.666992 66.333 -14.334 87 -41.001v281h83v-593c0 -28 8 -57.667 24 -89c2.66699 -5.33301 4.66699 -9 6 -11zM306 240.001c0 34.667 -0.999023 65.667 -2.99902 93c-2 23.333 -10.833 42.5 -26.5 57.5s-34.834 22.5 -57.501 22.5
c-22 0 -41.333 -7.66699 -58 -23s-26.334 -35 -29.001 -59s-4 -55 -4 -93c0 -38.667 1.33301 -70 4 -94s12.334 -43.5 29.001 -58.5s36 -22.5 58 -22.5c22.667 0 42 7.33301 58 22s24.667 34 26 58c2 28 3 60.333 3 97z" />
    <glyph glyph-name="e" unicode="e" horiz-adv-x="433" 
d="M393 209l-264.999 0.00195312c0 -23.333 1.66699 -46 5 -68s13.333 -40.667 30 -56s36.334 -23 59.001 -23c39.333 0 73.666 17.333 102.999 52l48 -40c-30.667 -56 -81 -84 -151 -84c-46 0 -85.333 14.167 -118 42.5s-50.667 64.166 -54 107.499
c-3.33301 38.667 -5 68.667 -5 90c0 43.333 1.66699 78.666 5 105.999c5.33301 43.333 24.166 79 56.499 107s70.833 42 115.5 42c44 0 81.5 -13.833 112.5 -41.5s49.5 -63.5 55.5 -107.5c2 -16 3 -51 3 -105v-22zM310.001 280.002c0 10 -0.331055 28 -0.998047 54
c-2.66699 22.667 -12.334 41.834 -29.001 57.501s-36 23.5 -58 23.5c-22.667 0 -42.834 -8 -60.501 -24s-27.5 -34.833 -29.5 -56.5s-3 -39.834 -3 -54.501h181z" />
    <glyph glyph-name="f" unicode="f" horiz-adv-x="273" 
d="M238 657l-21.001 -1.99902c-19.333 -2.66699 -36.166 -11.334 -50.499 -26.001s-22.5 -33 -24.5 -55c-2.66699 -24.667 -4 -51 -4 -79v-20h99v-72h-99v-403h-83v496c0 16.667 1.66699 44 5 82c4 42.667 21.833 78.5 53.5 107.5s69.167 43.167 112.5 42.5
c3.33301 0 7.33301 -0.333008 12 -1v-70z" />
    <glyph glyph-name="g" unicode="g" horiz-adv-x="454" 
d="M419 444c-2 -2.66699 -4.00098 -6.66699 -6.00098 -12c-16 -31.333 -24 -60.666 -24 -87.999v-336c0 -26.667 -1.33301 -53.334 -4 -80.001c-4.66699 -44 -23.334 -79.667 -56.001 -107s-72 -41 -118 -41c-60.667 0 -106.667 24.333 -138 73c-2 3.33301 -3.33301 6 -4 8
l57 37c24.667 -30.667 52.334 -46 83.001 -46c24.667 0 45.834 8 63.501 24s27.834 37.333 30.501 64c2.66699 29.333 4 50.666 4 63.999c0 0.666992 -0.333008 10 -1 28c-7.33301 -11.333 -19.5 -21.166 -36.5 -29.499s-33.833 -12.5 -50.5 -12.5
c-43.333 -0.666992 -81.333 13.5 -114 42.5s-51 64.833 -55 107.5c-3.33301 34 -5 66.667 -5 98s1.66699 64 5 98c4 42.667 22.333 78.334 55 107.001s70.667 42.667 114 42c47.333 -0.666992 82.666 -18.334 105.999 -53.001c3.33301 20 11.333 34.667 24 44
c2.66699 2 6 4.66699 10 8zM305.999 237c0 35.333 -1 67.334 -3 96.001c-2 23.333 -10.833 42.5 -26.5 57.5s-34.834 22.5 -57.501 22.5c-22 0 -41.333 -7.66699 -58 -23s-26.334 -35 -29.001 -59s-4 -55 -4 -93c0 -38.667 1.33301 -70 4 -94s12.334 -43.5 29.001 -58.5
s36 -22.5 58 -22.5c22.667 0 41.834 7.33301 57.501 22s24.5 34 26.5 58c2 27.333 3 58.666 3 93.999z" />
    <glyph glyph-name="h" unicode="h" horiz-adv-x="439" 
d="M384 0h-82.999v238c0 38 -1.5 69.167 -4.5 93.5s-11.5 44 -25.5 59s-31.667 22.5 -53 22.5c-22.667 0 -40.834 -7.33301 -54.501 -22s-21.167 -34 -22.5 -58c-2 -28 -3 -59.667 -3 -95v-238h-83v725h83v-280c17.333 26 44 39.333 80 40
c42.667 0.666992 79.167 -13.333 109.5 -42s47.5 -64.667 51.5 -108c3.33301 -30.667 5 -63 5 -97v-238z" />
    <glyph glyph-name="i" unicode="i" horiz-adv-x="229" 
d="M184 612c0 -14.667 -5.5 -27.167 -16.5 -37.5s-23.833 -15.5 -38.5 -15.5c-15.333 0 -28.5 5.16699 -39.5 15.5s-16.5 22.833 -16.5 37.5s5.5 27.334 16.5 38.001s24.167 16 39.5 16c14.667 0 27.5 -5.33301 38.5 -16s16.5 -23.334 16.5 -38.001zM170 0h-83v403h-52v72
h135v-475z" />
    <glyph glyph-name="j" unicode="j" horiz-adv-x="237" 
d="M192 612c0 -14.667 -5.33301 -27.167 -16 -37.5s-23.667 -15.5 -39 -15.5s-28.333 5.16699 -39 15.5s-16 22.833 -16 37.5s5.33301 27.334 16 38.001s23.667 16 39 16s28.333 -5.33301 39 -16s16 -23.334 16 -38.001zM178 16c0 -15.333 -1.66602 -42 -4.99902 -80
c-4 -42.667 -21.833 -78.5 -53.5 -107.5s-68.834 -43.167 -111.501 -42.5c-4 0 -8.33301 0.333008 -13 1v70l21 2c18.667 2.66699 35 11.167 49 25.5s22.667 32.833 26 55.5c3.33301 27.333 5 52.333 5 75v388h-52v72h134v-459z" />
    <glyph glyph-name="k" unicode="k" horiz-adv-x="413" 
d="M388 39l-62 -48l-188 237v-228h-83v725h83v-462l180 221l58 -48l-160 -191z" />
    <glyph glyph-name="l" unicode="l" horiz-adv-x="270" 
d="M270 -1c-2 -0.666992 -5.66797 -1.33301 -11.001 -2c-43.333 -0.666992 -81 13.5 -113 42.5s-50 65.167 -54 108.5c-2.66699 30 -4 63 -4 99v406h-53v72h135v-478c0 -36 1.66699 -67.667 5 -95c2.66699 -22.667 11 -41.167 25 -55.5s30.667 -22.833 50 -25.5
c6.66699 -1.33301 13.334 -2 20.001 -2v-70z" />
    <glyph glyph-name="m" unicode="m" horiz-adv-x="657" 
d="M602 0l-81.999 -0.00390625v251c0 42 -0.666992 69.667 -2 83c-6 53.333 -29.333 80 -70 80c-46 0 -69.667 -26.667 -71 -80l-2 -74v-260h-82v251c0 42 -0.666992 69.667 -2 83c-6 53.333 -29.333 80 -70 80c-46 0 -69.667 -26.667 -71 -80
c-1.33301 -41.333 -2 -73.333 -2 -96v-238h-82v344c0 32.667 -8 62 -24 88l-7 12l61 40c3.33301 -2 6.66602 -4.66699 9.99902 -8c12.667 -10 21 -24.667 25 -44c25.333 34.667 55.666 52.334 90.999 53.001c46.667 1.33301 85.334 -20 116.001 -64
c9.33301 19.333 24.666 35 45.999 47c19.333 10.667 40.333 16.334 63 17.001c40.667 0.666992 75.334 -13.166 104.001 -41.499s45 -64.5 49 -108.5c1.33301 -15.333 2 -45.666 2 -90.999v-244z" />
    <glyph glyph-name="n" unicode="n" horiz-adv-x="449" 
d="M394 0h-82.998v238c0 38 -1.5 69.167 -4.5 93.5s-11.333 44 -25 59s-31.167 22.5 -52.5 22.5c-22.667 0 -40.834 -7.33301 -54.501 -22s-21.5 -34 -23.5 -58c-2 -31.333 -3 -63 -3 -95v-238h-83v344c0 33.333 -7.66699 62.666 -23 87.999l-7 12l61 40
c3.33301 -2 6.66602 -4.66699 9.99902 -8c12.667 -10 21 -24.667 25 -44c25.333 34.667 58 52.334 98 53.001c42 0.666992 78.167 -13.333 108.5 -42s47.5 -64.667 51.5 -108c3.33301 -30.667 5 -63 5 -97v-238z" />
    <glyph glyph-name="o" unicode="o" horiz-adv-x="444" 
d="M399 238c0 -30.667 -1.66895 -63.335 -5.00195 -98.002c-4.66699 -43.333 -23.167 -79.166 -55.5 -107.499s-71.166 -42.5 -116.499 -42.5s-84.333 14.167 -117 42.5s-51 64.166 -55 107.499c-3.33301 34.667 -5 67.334 -5 98.001c0 40.667 1.66699 73.334 5 98.001
c4.66699 42.667 23.334 78.167 56.001 106.5s71.334 42.5 116.001 42.5s83.167 -14.167 115.5 -42.5s51.166 -63.833 56.499 -106.5c3.33301 -27.333 5 -60 5 -98zM315.998 237.999c0 41.333 -1.33398 72.999 -4.00098 94.999s-12.667 40.833 -30 56.5
s-37.333 23.5 -60 23.5s-42.667 -7.83301 -60 -23.5s-27.333 -34.5 -30 -56.5c-2.66699 -24.667 -4 -56.334 -4 -95.001c0 -39.333 1.33301 -70.666 4 -93.999s12.834 -42.666 30.501 -57.999s37.5 -23 59.5 -23c22.667 0 42.667 7.66699 60 23s27.333 34 30 56s4 54 4 96z
" />
    <glyph glyph-name="p" unicode="p" horiz-adv-x="454" 
d="M409 238c0 -38 -1.33203 -70.665 -3.99902 -97.998c-4 -42.667 -22.5 -78.5 -55.5 -107.5s-70.833 -43.167 -113.5 -42.5c-38 0.666992 -67.333 14.667 -88 42v-244h-82v556c0 30.667 -8 60 -24 88c-2.66699 5.33301 -5 9.66602 -7 12.999l61 40
c5.33301 -4.66699 8.66602 -7.66699 9.99902 -9c14 -14 22.333 -28.333 25 -43c24 34 59 51.333 105 52c42.667 0.666992 80.5 -13.333 113.5 -42s51.5 -64.334 55.5 -107.001c2.66699 -27.333 4 -60 4 -98zM327.001 238.002c0 40.667 -1.50098 72.332 -4.50098 94.999
s-12.833 41.667 -29.5 57s-35.667 23 -57 23c-23.333 0 -42.833 -7.5 -58.5 -22.5s-24.5 -34.167 -26.5 -57.5c-2 -28.667 -3 -60.667 -3 -96s1 -66.333 3 -93c2 -24 10.833 -43.5 26.5 -58.5s35.167 -22.5 58.5 -22.5c25.333 0 46 9.33301 62 28
c14.667 16.667 23.334 38 26.001 64c2 22.667 3 50.334 3 83.001z" />
    <glyph glyph-name="q" unicode="q" horiz-adv-x="454" 
d="M419 445c-1.33301 -2.66699 -3.33301 -7 -6 -13l-17 -35c-4.66699 -14 -7 -31.667 -7 -53v-556h-83v244c-20.667 -27.333 -49.667 -41.333 -87 -42c-43.333 -0.666992 -81.333 13.5 -114 42.5s-51 64.833 -55 107.5c-3.33301 34 -5 66.667 -5 98s1.66699 64 5 98
c4 42.667 22.333 78.334 55 107.001s70.667 42.667 114 42c46 -0.666992 81.333 -18 106 -52c2 17.333 10 31.666 24 42.999c0 0.666992 3.33301 3.66699 10 9zM306 237c0 35.333 -1 67.333 -3 96c-2 23.333 -10.833 42.5 -26.5 57.5s-34.834 22.5 -57.501 22.5
c-22 0 -41.333 -7.66699 -58 -23s-26.334 -35 -29.001 -59s-4 -55 -4 -93c0 -38.667 1.33301 -70 4 -94s12.334 -43.5 29.001 -58.5s36 -22.5 58 -22.5c22.667 0 41.834 7.5 57.501 22.5s24.5 34.5 26.5 58.5c2 26.667 3 57.667 3 93z" />
    <glyph glyph-name="r" unicode="r" horiz-adv-x="307" 
d="M282 478l-23.998 -73.999c-2 0.666992 -4 1.66699 -6 3c-8 3.33301 -16.667 5 -26 5c-24 0 -43.333 -10 -58 -30c-10.667 -14 -16.334 -32.333 -17.001 -55c-2 -38 -3 -67.667 -3 -89v-238h-82v344c0 30.667 -8 60 -24 88c-2.66699 5.33301 -5 9.66602 -7 12.999l61 39
c3.33301 -2 6.66602 -4.66699 9.99902 -8c12 -9.33301 20.333 -21.666 25 -36.999c26.667 30 60.334 45.333 101.001 46c16 0 30.333 -1.66699 43 -5c1.33301 -0.666992 3.66602 -1.33398 6.99902 -2.00098z" />
    <glyph glyph-name="s" unicode="s" horiz-adv-x="379" 
d="M339 121c0 -36.667 -14.499 -67.667 -43.499 -93s-64.5 -38 -106.5 -38c-67.333 0 -117 25.667 -149 77c-2.66699 3.33301 -4.33398 6.33301 -5.00098 9l58 38c28.667 -34.667 60.667 -52 96 -52c16.667 0 32 5.66699 46 17s21 24.666 21 39.999
c0 24.667 -18.333 48.334 -55 71.001l-102 64c-36.667 30 -55 66 -55 108c0 34 14.333 63 43 87s62.667 36 102 36c56.667 0 101.667 -19.667 135 -59c2 -2.66699 3.66699 -5 5 -7l-50 -45c-10 8 -19.667 15.333 -29 22c-18 12 -37.667 18 -59 18
c-16.667 0 -31.5 -5 -44.5 -15s-19.5 -21.667 -19.5 -35c0 -25.333 18 -50 54 -74l103 -65c36.667 -30 55 -64.667 55 -104z" />
    <glyph glyph-name="t" unicode="t" horiz-adv-x="283" 
d="M238 -2c-2.66699 0 -6.66699 -0.330078 -12 -0.99707c-43.333 -0.666992 -80.833 13.666 -112.5 42.999s-49.5 65.666 -53.5 108.999c-3.33301 37.333 -5 69.666 -5 96.999v355h83v-126h100v-72h-100v-157c0 -36 1.66699 -67.667 5 -95
c2.66699 -22.667 11 -41.167 25 -55.5s30.333 -22.833 49 -25.5c6.66699 -0.666992 13.667 -1 21 -1v-71z" />
    <glyph glyph-name="u" unicode="u" horiz-adv-x="449" 
d="M414 32l-61.001 -41.001c-6 4.66699 -9 7.33398 -9 8.00098c-13.333 12 -21.666 27 -24.999 45c-26 -35.333 -58.667 -53.333 -98 -54c-42.667 -0.666992 -79.167 13.333 -109.5 42s-47.5 64.667 -51.5 108c-3.33301 34 -5 66.667 -5 98v237h83v-237
c0 -38.667 1.33301 -70 4 -94s11.167 -43.5 25.5 -58.5s32.166 -22.5 53.499 -22.5c46.667 0 72.334 26.667 77.001 80c2.66699 35.333 4 67 4 95v237h82v-343c0 -34 7.66699 -63.667 23 -89c2 -3.33301 4.33301 -7 7 -11z" />
    <glyph glyph-name="v" unicode="v" horiz-adv-x="404" 
d="M379 462l-142 -462h-70l-142 462l77 22l85 -298c10 -36 14.667 -59.667 14 -71h2c-0.666992 11.333 4 35 14 71l85 298z" />
    <glyph glyph-name="w" unicode="w" horiz-adv-x="574" 
d="M549 467l-118.002 -467h-69l-58 228c-5.33301 20.667 -10.666 49.667 -15.999 87h-1c-1.33301 -16 -6.66602 -45 -15.999 -87l-59 -228h-69l-118 467l76 17l63 -290c4 -19.333 8.66699 -47.333 14 -84h1c2 19.333 7.66699 47 17 83l60 225h62l60 -225
c4 -17.333 9.66699 -45 17 -83h1c1.33301 16.667 6 44.667 14 84l63 290z" />
    <glyph glyph-name="x" unicode="x" horiz-adv-x="398" 
d="M373 31l-67 -40l-107 187l-108 -187l-66 40l128 213l-121 201l66 39l101 -174l100 174l67 -39l-122 -201z" />
    <glyph glyph-name="y" unicode="y" horiz-adv-x="439" 
d="M384 8c0 -20 -1.66504 -46.667 -4.99805 -80c-4.66699 -44.667 -22.334 -80.5 -53.001 -107.5s-68.667 -40.5 -114 -40.5c-56.667 0 -100.667 24.333 -132 73c-2 3.33301 -3.33301 6 -4 8l57 38c3.33301 -5.33301 9.66602 -13.333 18.999 -24
c17.333 -15.333 36.666 -23 57.999 -23c22.667 0 41.834 7 57.501 21s25.5 32.333 29.5 55c2.66699 20 4 43.333 4 70v34c-20 -27.333 -46.667 -41.333 -80 -42c-42.667 -0.666992 -79.167 13.333 -109.5 42s-47.5 64.667 -51.5 108c-3.33301 34 -5 66.667 -5 98v237h83
v-237c0 -38.667 1.33301 -70 4 -94s11.167 -43.5 25.5 -58.5s32.166 -22.5 53.499 -22.5c46.667 0 72.334 27 77.001 81c2 30 3 61.333 3 94v237h83v-467z" />
    <glyph glyph-name="z" unicode="z" horiz-adv-x="385" 
d="M345 0h-300v73l203 330h-193v72h283v-72l-203 -330h210v-73z" />
    <glyph glyph-name="braceleft" unicode="{" horiz-adv-x="369" 
d="M324 -227l-10 -1.99805c-43.333 -0.666992 -80.5 14 -111.5 44s-48.833 66.333 -53.5 109c-2 14.667 -3.66699 59 -5 133c-1.33301 51.333 -6 87.333 -14 108c-14.667 35.333 -43 53.666 -85 54.999v73c42 1.33301 70 19.666 84 54.999c8.66699 20.667 13.667 57 15 109
c0 29.333 1.66699 73.333 5 132c4.66699 42.667 22.5 79 53.5 109s68.167 44.667 111.5 44l10 -2v-60c-43.333 -4 -71.666 -24.667 -84.999 -62c-8.66699 -23.333 -13 -64.333 -13 -123c-0.666992 -69.333 -3.33398 -116.333 -8.00098 -141
c-10.667 -50 -33.334 -82.333 -68.001 -97c34.667 -15.333 57.334 -48 68.001 -98c4.66699 -24.667 7.33398 -71.667 8.00098 -141c0 -58.667 4.33301 -99.667 13 -123c13.333 -37.333 41.666 -58 84.999 -62v-60z" />
    <glyph glyph-name="bar" unicode="|" horiz-adv-x="233" 
d="M158 -210h-83v935h83v-935z" />
    <glyph glyph-name="braceright" unicode="}" horiz-adv-x="369" 
d="M324 220c-42 -1.33301 -70.333 -19.6689 -85 -55.002c-8 -20.667 -12.333 -56.667 -13 -108c-0.666992 -29.333 -2.33398 -73.666 -5.00098 -132.999c-5.33301 -42.667 -23 -78.667 -53 -108c-32 -30.667 -69.667 -45.667 -113 -45l-10 2v60
c43.333 4 71.666 24.667 84.999 62c8.66699 22.667 13 63.667 13 123c0.666992 69.333 3.33398 116.333 8.00098 141c10.667 50 33.667 82.667 69 98c-35.333 14.667 -58.333 47 -69 97c-4.66699 24.667 -7.33398 71.667 -8.00098 141c0 58.667 -4.33301 99.667 -13 123
c-13.333 37.333 -41.666 58 -84.999 62v60l10 2c43.333 0.666992 81 -14.333 113 -45c30 -29.333 47.667 -65.333 53 -108c1.33301 -14.667 3 -58.667 5 -132c0.666992 -52 5.33398 -88.333 14.001 -109c14 -35.333 42 -53.666 84 -54.999v-73z" />
    <glyph glyph-name="asciitilde" unicode="~" horiz-adv-x="379" 
d="M334 699c-7.33301 -23.333 -19.3311 -43 -35.998 -59s-35.667 -24 -57 -24c-16 0 -35.167 6 -57.5 18s-37.5 18 -45.5 18c-20 0 -34.667 -11 -44 -33l-49 24c7.33301 22.667 19.166 42 35.499 58s35.166 24 56.499 24c14.667 0 33.5 -6 56.5 -18s38.5 -18 46.5 -18
c20.667 0 35.667 11 45 33z" />
    <glyph glyph-name="nonbreakingspace" unicode="&#xa0;" horiz-adv-x="109" 
 />
    <glyph glyph-name="exclamdown" unicode="&#xa1;" horiz-adv-x="257" 
d="M175 466c0 -16.667 -6 -30.667 -18 -42s-26.333 -17 -43 -17s-31 5.66699 -43 17s-18 25.333 -18 42c0 16 6 29.833 18 41.5s26.333 17.5 43 17.5s31 -5.83301 43 -17.5s18 -25.5 18 -41.5zM159 -212h-90v538h90v-538z" />
    <glyph glyph-name="cent" unicode="&#xa2;" horiz-adv-x="423" 
d="M368 71c-0.666992 -2 -2 -4.33398 -4 -7.00098c-24 -37.333 -56 -60.666 -96 -69.999v-130h-79v131c-35.333 8 -65 25.167 -89 51.5s-37.333 57.5 -40 93.5c-3.33301 42.667 -5 75.334 -5 98.001c0 38 1.66699 70.667 5 98c4.66699 36 18.667 67 42 93s52.333 43 87 51
v131h79v-130c32 -7.33301 59.667 -25 83 -53c2.66699 -2.66699 4.33398 -5 5.00098 -7l-52 -43c-26 24 -50.333 36 -73 36s-42.334 -8.33301 -59.001 -25s-26.5 -36.834 -29.5 -60.501s-4.5 -54.5 -4.5 -92.5c0 -39.333 1.5 -70.5 4.5 -93.5s12.5 -42 28.5 -57
s36 -22.5 60 -22.5c22.667 0 44 9.33301 64 28c4 4 9.33301 10 16 18z" />
    <glyph glyph-name="sterling" unicode="&#xa3;" horiz-adv-x="560" 
d="M505 682l-41.9961 -60c-38 22 -72.667 33 -104 33h-6c-30.667 -2 -55.834 -12.667 -75.501 -32s-32.167 -44 -37.5 -74c-5.33301 -26.667 -8 -74 -8 -142v-12h129v-76h-129c0 -65.333 -1 -108 -3 -128c-4.66699 -51.333 -16 -88.333 -34 -111h305v-80h-445v79
c47.333 8 74.666 37.333 81.999 88c3.33301 22.667 5 48.667 5 78v74h-87v76h87c0 69.333 2.33301 121 7 155c7.33301 54 30.666 98.5 69.999 133.5s86.333 52.5 141 52.5c57.333 0 105.666 -18 144.999 -54z" />
    <glyph glyph-name="currency" unicode="&#xa4;" horiz-adv-x="556" 
d="M542 94c-18.667 -32.667 -44.5 -58.166 -77.5 -76.499s-69.167 -27.5 -108.5 -27.5c-59.333 0 -110.5 18.667 -153.5 56s-68.167 85 -75.5 143l-3 23c-2.66699 23.333 -4 65 -4 125h-94v73h94c0.666992 52.667 2.66699 93 6 121
c7.33301 59.333 32.5 108.166 75.5 146.499s94.5 57.5 154.5 57.5c70.667 0 127 -27.667 169 -83l-56 -49c-3.33301 3.33301 -6.66602 7 -9.99902 11c-26 26.667 -60.333 40 -103 40s-76.334 -14.333 -101.001 -43c-23.333 -26 -37 -60.333 -41 -103
c-2 -26.667 -3.33301 -59.334 -4 -98.001h213v-73h-213c0.666992 -61.333 3 -107.666 7 -138.999c4 -37.333 19 -67.833 45 -91.5s57.333 -35.5 94 -35.5c47.333 0 84.333 16 111 48l13 17z" />
    <glyph glyph-name="yen" unicode="&#xa5;" horiz-adv-x="499" 
d="M509 695l-160 -309h102v-73h-137v-313h-90v313h-137v73h103l-160 309l77 39l162 -322l163 322z" />
    <glyph glyph-name="brokenbar" unicode="&#xa6;" horiz-adv-x="233" 
d="M158 -210h-83v419h83v-419zM158 306h-83v419h83v-419z" />
    <glyph glyph-name="section" unicode="&#xa7;" horiz-adv-x="563" 
d="M491 239c0 -56 -28.665 -106.334 -85.998 -151.001c34 -43.333 51 -86.333 51 -129c0 -49.333 -19.333 -89.833 -58 -121.5s-83.334 -47.5 -134.001 -47.5c-44 0 -85 17 -123 51l46 57c32.667 -18.667 60.667 -28 84 -28s44 7 62 21c20.667 16.667 31 38.334 31 65.001
c0 28.667 -11.333 54 -34 76c-14.667 14 -38.334 29.333 -71.001 46c-66.667 34.667 -109.667 60.667 -129 78c-38 35.333 -57 81 -57 137s28.333 106.333 85 151c-34 44 -51 87 -51 129c0 49.333 19.667 90.333 59 123c38 30.667 82.333 46 133 46c44 0 85 -17 123 -51
l-46 -57c-32.667 18.667 -60.667 28 -84 28c-22.667 0 -43.334 -7 -62.001 -21c-20.667 -16.667 -31 -38.334 -31 -65.001c0 -28.667 11.333 -54 34 -76c14.667 -14 38.334 -29.333 71.001 -46l53 -28c42.667 -22.667 74 -45.667 94 -69
c26.667 -31.333 40 -70.666 40 -117.999zM399.002 236.999c0 38.667 -21.667 73 -65 103c-14 10 -49.333 29 -106 57c-42.667 -24.667 -64 -58.667 -64 -102c0 -49.333 38.667 -93.666 116 -132.999c10.667 -4.66699 29 -13.334 55 -26.001c42.667 24 64 57.667 64 101z" />
    <glyph glyph-name="dieresis" unicode="&#xa8;" horiz-adv-x="415" 
d="M350 612c0 -14.667 -5.5 -27.167 -16.5 -37.5s-24.167 -15.5 -39.5 -15.5s-28.333 5.16699 -39 15.5s-16 22.833 -16 37.5s5.33301 27.334 16 38.001s23.667 16 39 16s28.5 -5.33301 39.5 -16s16.5 -23.334 16.5 -38.001zM176 612c0 -14.667 -5.5 -27.167 -16.5 -37.5
s-23.833 -15.5 -38.5 -15.5c-15.333 0 -28.5 5.16699 -39.5 15.5s-16.5 22.833 -16.5 37.5s5.5 27.334 16.5 38.001s24.167 16 39.5 16c14.667 0 27.5 -5.33301 38.5 -16s16.5 -23.334 16.5 -38.001z" />
    <glyph glyph-name="copyright" unicode="&#xa9;" horiz-adv-x="835" 
d="M790 363c0 -102.667 -36.5 -190.5 -109.5 -263.5s-160.833 -109.5 -263.5 -109.5s-190.334 36.5 -263.001 109.5s-109 160.833 -109 263.5s36.333 190.334 109 263.001s160.334 109 263.001 109s190.5 -36.333 263.5 -109s109.5 -160.334 109.5 -263.001zM715 363
c0 83.333 -29 154.5 -87 213.5s-128.333 88.5 -211 88.5s-152.834 -29.5 -210.501 -88.5s-86.5 -130.167 -86.5 -213.5s28.833 -154.5 86.5 -213.5s127.834 -88.5 210.501 -88.5s153 29.5 211 88.5s87 130.167 87 213.5zM558 201
c-0.666992 -1.33301 -2.33105 -3.99805 -4.99805 -7.99805c-31.333 -46.667 -73.666 -70 -126.999 -70c-44 0 -81.5 13.667 -112.5 41s-48.833 62 -53.5 104c-0.666992 0 -1.33398 4.33301 -2.00098 13c-2 20 -3 47.333 -3 82c0 36 1.66699 67.667 5 95
c4.66699 41.333 22.667 75.666 54 102.999s68.333 41 111 41c49.333 0 89.666 -20.667 120.999 -62l-50 -42c-24.667 23.333 -48 35 -70 35c-22.667 0 -42.167 -8.16699 -58.5 -24.5s-26 -36 -29 -59s-4.5 -52.5 -4.5 -88.5c0 -39.333 1.33301 -69.333 4 -90
c2.66699 -22.667 12.167 -41.334 28.5 -56.001s36.166 -22 59.499 -22c27.333 0 53 14.667 77 44z" />
    <glyph glyph-name="ordfeminine" unicode="&#xaa;" horiz-adv-x="445" 
d="M420 279l-60.001 -38c-2 1.33301 -4.33301 3.33301 -7 6c-14.667 11.333 -24.334 25.666 -29.001 42.999c-29.333 -33.333 -67.333 -50 -114 -50c-50 0 -90.833 13.667 -122.5 41s-47.5 62.666 -47.5 105.999c0 60.667 26 105.334 78 134.001c41.333 22.667 95 34 161 34
h23c0 8.66699 -0.666992 19.667 -2 33c-4 22 -14.333 39.833 -31 53.5s-35.667 20.5 -57 20.5c-27.333 0 -55.666 -12.333 -84.999 -37l-49 44c12 20 31.333 36.333 58 49c24.667 11.333 50 17 76 17c44.667 0 83 -14.167 115 -42.5s50.667 -63.833 56 -106.5
c3.33301 -30.667 5 -62.667 5 -96v-108c2.66699 -35.333 11.334 -65.666 26.001 -90.999c0 -1.33301 2 -5.33301 6 -12zM390.999 106h-326v71h326v-71zM305.999 483l-23 -0.000976562c-106 0 -159 -31.667 -159 -95c0 -22 7.83301 -40 23.5 -54s36.834 -21 63.501 -21
c22.667 0 42.667 7.33301 60 22s27.666 33.334 30.999 56.001c2.66699 20 4 50.667 4 92z" />
    <glyph glyph-name="guillemotleft" unicode="&#xab;" horiz-adv-x="549" 
d="M494 60l-53 -42l-189 227l189 227l53 -42l-131 -185zM297 60l-52 -42l-190 227l190 227l52 -42l-131 -185z" />
    <glyph glyph-name="minus" unicode="&#xad;" horiz-adv-x="420" 
d="M365 204h-310v81h310v-81z" />
    <glyph glyph-name="minus" unicode="&#x2212;" horiz-adv-x="420" 
d="M365 204h-310v81h310v-81z" />
    <glyph glyph-name="registered" unicode="&#xae;" horiz-adv-x="835" 
d="M790 363c0 -102.667 -36.5 -190.5 -109.5 -263.5s-160.833 -109.5 -263.5 -109.5s-190.334 36.5 -263.001 109.5s-109 160.833 -109 263.5s36.333 190.334 109 263.001s160.334 109 263.001 109s190.5 -36.333 263.5 -109s109.5 -160.334 109.5 -263.001zM715 363
c0 83.333 -28.833 154.5 -86.5 213.5s-128.167 88.5 -211.5 88.5c-82.667 0 -152.834 -29.5 -210.501 -88.5s-86.5 -130.167 -86.5 -213.5s28.833 -154.5 86.5 -213.5s127.834 -88.5 210.501 -88.5s153 29.5 211 88.5s87 130.167 87 213.5zM578 156l-62 -30l-96 194
c-16.667 -1.33301 -33 -2 -49 -2v-184h-72v464c1.33301 0 3 0.333008 5 1h66c68 0 118.667 -14.667 152 -44c27.333 -24 41 -55.333 41 -94c0 -56.667 -24.667 -97.667 -74 -123zM490 460c0 44.667 -21.333 69.001 -64 73.001c-18.667 1.33301 -37 1.66602 -55 0.999023
v-150c24.667 0 44 0.666992 58 2c40.667 5.33301 61 30 61 74z" />
    <glyph glyph-name="macron" unicode="&#xaf;" horiz-adv-x="369" 
d="M313 582h-272v61h272v-61z" />
    <glyph glyph-name="macron" unicode="&#x2c9;" horiz-adv-x="369" 
d="M313 582h-272v61h272v-61z" />
    <glyph glyph-name="degree" unicode="&#xb0;" horiz-adv-x="378" 
d="M323 603c0 -37.333 -13.167 -68.832 -39.5 -94.499s-57.833 -38.5 -94.5 -38.5c-37.333 0 -69 12.833 -95 38.5s-39 57.167 -39 94.5c0 36 13 67 39 93s57.667 39 95 39s69 -12.833 95 -38.5s39 -56.834 39 -93.501zM244 603.001c0 14.667 -5.5 27.667 -16.5 39
s-23.833 17 -38.5 17s-27.5 -5.66699 -38.5 -17s-16.5 -24.333 -16.5 -39c0 -16 5.33301 -29.333 16 -40s23.667 -16 39 -16c14.667 0 27.5 5.5 38.5 16.5s16.5 24.167 16.5 39.5z" />
    <glyph glyph-name="acute" unicode="&#xb4;" horiz-adv-x="286" 
d="M206 619c-4 -4.66699 -39.001 -38 -105.001 -100l-36 26l64 133c8 16.667 22.333 25 43 25c10.667 0 20.334 -3 29.001 -9c13.333 -10 20 -23.333 20 -40c0 -14 -5 -25.667 -15 -35z" />
    <glyph glyph-name="paragraph" unicode="&#xb6;" horiz-adv-x="743" 
d="M678 645h-74v-857h-90v857h-74v-857h-90v509c-32.667 -0.666992 -66 0.333008 -100 3c-58.667 4.66699 -107.5 26.667 -146.5 66s-58.5 88.333 -58.5 147c0 58 19.5 106.167 58.5 144.5s87.833 59.833 146.5 64.5c23.333 2 79 3 167 3h261v-80zM350 377
l0.000976562 266.999c-36 1.33301 -69.333 0.666016 -100 -2.00098c-34 -3.33301 -61.333 -15.666 -82 -36.999c-22 -23.333 -33 -54.333 -33 -93c0 -39.333 10.667 -70.666 32 -93.999s49 -36.333 83 -39c19.333 -2 52.666 -2.66699 99.999 -2z" />
    <glyph glyph-name="periodcentered" unicode="&#xb7;" horiz-adv-x="252" 
d="M187 246c0 -16 -6 -29.833 -18 -41.5s-26.333 -17.5 -43 -17.5s-31 5.83301 -43 17.5s-18 25.5 -18 41.5s6 29.833 18 41.5s26.333 17.5 43 17.5s31 -5.83301 43 -17.5s18 -25.5 18 -41.5z" />
    <glyph glyph-name="periodcentered" unicode="&#x2219;" horiz-adv-x="252" 
d="M187 246c0 -16 -6 -29.833 -18 -41.5s-26.333 -17.5 -43 -17.5s-31 5.83301 -43 17.5s-18 25.5 -18 41.5s6 29.833 18 41.5s26.333 17.5 43 17.5s31 -5.83301 43 -17.5s18 -25.5 18 -41.5z" />
    <glyph glyph-name="cedilla" unicode="&#xb8;" horiz-adv-x="211" 
d="M208 -126c0 -4.66699 -0.333984 -11.333 -1.00098 -20c-0.666992 -23.333 -9 -41.5 -25 -54.5s-35.667 -19.5 -59 -19.5c-35.333 0 -60 14.333 -74 43l-4 7l40 27c8 -9.33301 13 -15 15 -17c6.66699 -6 13.334 -9.33301 20.001 -10h4c16 0 25 9.66699 27 29
c0 2 0.333008 7 1 15c-0.666992 8 -1 13 -1 15c-1.33301 20 -12 30 -32 30h-30v81h56v-33c40 -8 60.667 -32.333 62 -73c0 -8 0.333008 -14.667 1 -20z" />
    <glyph glyph-name="ordmasculine" unicode="&#xba;" horiz-adv-x="444" 
d="M399 488c0 -30.667 -1.66895 -63.335 -5.00195 -98.002c-4.66699 -43.333 -23.167 -79.166 -55.5 -107.499s-71.166 -42.5 -116.499 -42.5s-84.333 14.167 -117 42.5s-51 64.166 -55 107.499c-3.33301 34.667 -5 67.334 -5 98.001c0 40.667 1.66699 73.334 5 98.001
c4.66699 42.667 23.334 78.167 56.001 106.5s71.334 42.5 116.001 42.5s83.167 -14.167 115.5 -42.5s51.166 -63.833 56.499 -106.5c3.33301 -27.333 5 -60 5 -98zM385.998 105.999h-326v71h326v-71zM315.998 487.999c0 41.333 -1.33398 72.999 -4.00098 94.999
s-12.667 40.833 -30 56.5s-37.333 23.5 -60 23.5s-42.667 -7.83301 -60 -23.5s-27.333 -34.5 -30 -56.5c-2.66699 -24.667 -4 -56.334 -4 -95.001c0 -39.333 1.33301 -70.666 4 -93.999s12.834 -42.666 30.501 -57.999s37.5 -23 59.5 -23c22.667 0 42.667 7.66699 60 23
s27.333 34 30 56s4 54 4 96z" />
    <glyph glyph-name="guillemotright" unicode="&#xbb;" horiz-adv-x="549" 
d="M494 245l-190 -227l-53 42l131 185l-131 185l53 42zM297 245l-189 -227l-53 42l131 185l-131 185l53 42z" />
    <glyph glyph-name="questiondown" unicode="&#xbf;" horiz-adv-x="420" 
d="M318 468c0 -16.667 -6 -30.667 -18 -42s-26.333 -17 -43 -17s-31 5.66699 -43 17s-18 25.333 -18 42c0 16 6 29.833 18 41.5s26.333 17.5 43 17.5s31 -5.83301 43 -17.5s18 -25.5 18 -41.5zM398 -134c-48 -57.333 -107.666 -85.999 -178.999 -85.999
c-52 0 -97.333 17.667 -136 53s-58 77 -58 125c0 35.333 11.667 68.666 35 99.999c15.333 20.667 40 44.667 74 72c46 36.667 71 71.667 75 105c1.33301 16.667 2.33301 48 3 94h90c-0.666992 -48 -2.33398 -82 -5.00098 -102c-3.33301 -22.667 -9 -42.667 -17 -60
c-15.333 -33.333 -44.333 -66.333 -87 -99c-52 -40 -78 -76.333 -78 -109c0 -28.667 10.333 -52 31 -70s46 -27.333 76 -28c43.333 -0.666992 84.333 18 123 56z" />
    <glyph glyph-name="Agrave" unicode="&#xc0;" 
d="M324 794l-36.001 -25l-105 100c-10 9.33301 -15 21 -15 35c0 16.667 7 30 21 40c8.66699 6 18.334 9 29.001 9c20 0 34.333 -9 43 -27c4 -6 25 -50 63 -132zM546.999 17l-89 -26l-58 202h-223l-59 -202l-88 26l220 708h77zM375.999 273l-73.001 254
c-9.33301 32.667 -14 56.334 -14 71.001h-2c0.666992 -14.667 -3.66602 -38.334 -12.999 -71.001l-73 -254h175z" />
    <glyph glyph-name="Aacute" unicode="&#xc1;" 
d="M394 869c-4.66699 -4.66699 -40.001 -38 -106.001 -100l-36 25l64 133c8 17.333 22.333 26 43 26c10.667 0 20.334 -3 29.001 -9c13.333 -10 20 -23.333 20 -40c0 -14 -4.66699 -25.667 -14 -35zM546.999 17l-89 -26l-58 202h-223l-59 -202l-88 26l220 708h77z
M375.999 273l-73.001 254c-9.33301 32.667 -14 56.334 -14 71.001h-2c0.666992 -14.667 -3.66602 -38.334 -12.999 -71.001l-73 -254h175z" />
    <glyph glyph-name="Acircumflex" unicode="&#xc2;" 
d="M407 797l-38 -25.999l-81 94l-82 -94l-37 26l68 130c1.33301 2 3 4.66699 5 8h91c2 -2.66699 3.66699 -5.33398 5 -8.00098zM547 18.001l-88 -27l-59 202h-223l-58 -202l-89 27l220 707h77zM376 273.001l-73.001 254c-9.33301 33.333 -13.666 57 -12.999 71h-2
c0 -14 -4.33301 -37.667 -13 -71l-74 -254h175z" />
    <glyph glyph-name="Atilde" unicode="&#xc3;" 
d="M433 890c-10 -30.667 -26.665 -53.333 -49.998 -68c-15.333 -10 -29.666 -15 -42.999 -15c-16 0 -35.167 6 -57.5 18s-37.5 18 -45.5 18c-20 0 -34.667 -11 -44 -33l-49 24c9.33301 30 25.666 52.333 48.999 67c15.333 10 29.666 15 42.999 15c14.667 0 33.667 -6 57 -18
s38.666 -18 45.999 -18c20.667 0 35.667 11 45 33zM547.002 18.001l-88 -27l-59 202h-223l-58 -202l-89 27l220 707h77zM376.002 273.001l-73.001 254c-9.33301 33.333 -13.666 57 -12.999 71h-2c0 -14 -4.33301 -37.667 -13 -71l-74 -254h175z" />
    <glyph glyph-name="Adieresis" unicode="&#xc4;" 
d="M431 862c0 -14.667 -5.5 -27.167 -16.5 -37.5s-24.167 -15.5 -39.5 -15.5s-28.333 5.16699 -39 15.5s-16 22.833 -16 37.5s5.33301 27.334 16 38.001s23.667 16 39 16s28.5 -5.33301 39.5 -16s16.5 -23.334 16.5 -38.001zM257 862c0 -14.667 -5.5 -27.167 -16.5 -37.5
s-23.833 -15.5 -38.5 -15.5c-15.333 0 -28.5 5.16699 -39.5 15.5s-16.5 22.833 -16.5 37.5s5.5 27.334 16.5 38.001s24.167 16 39.5 16c14.667 0 27.5 -5.33301 38.5 -16s16.5 -23.334 16.5 -38.001zM547 18l-88 -27l-59 202h-223l-58 -202l-89 27l220 707h77zM376 273
l-73.001 254c-9.33301 33.333 -13.666 57 -12.999 71h-2c0 -14 -4.33301 -37.667 -13 -71l-74 -254h175z" />
    <glyph glyph-name="Aring" unicode="&#xc5;" 
d="M385 862c0 -26.667 -9.33301 -49 -28 -67s-41.334 -27 -68.001 -27s-49.167 9.16699 -67.5 27.5s-27.5 40.5 -27.5 66.5s9.33301 48.333 28 67s41 28 67 28c26.667 0 49.334 -9.16699 68.001 -27.5s28 -40.833 28 -67.5zM547 18l-88 -27l-59 202h-223l-58 -202l-89 27
l220 707h77zM328 862c0 10.667 -3.83398 19.998 -11.501 27.998s-16.834 12 -27.501 12c-10 0 -19 -4 -27 -12s-12 -17.333 -12 -28c0 -11.333 3.83301 -20.666 11.5 -27.999s16.834 -11 27.501 -11s19.834 3.83301 27.501 11.5s11.5 16.834 11.5 27.501zM375.999 272.998
l-73.001 254c-9.33301 33.333 -13.666 57 -12.999 71h-2c0 -14 -4.33301 -37.667 -13 -71l-74 -254h175z" />
    <glyph glyph-name="AE" unicode="&#xc6;" horiz-adv-x="827" 
d="M794 0h-353v193h-214l-116 -202l-81 49l411 685h343v-80h-253v-231h233v-80h-233v-254h263v-80zM441 273v296.999c-4 -9.33301 -10.667 -23.666 -20 -42.999l-147 -254h167z" />
    <glyph glyph-name="Ccedilla" unicode="&#xc7;" horiz-adv-x="503" 
d="M473 94c-34.667 -60.667 -88.332 -94.9971 -160.999 -102.997v-24c40 -8 60.667 -32.333 62 -73v-19.5v-20.5c-0.666992 -23.333 -9.16699 -41.5 -25.5 -54.5s-36.166 -19.5 -59.499 -19.5c-34.667 0 -59.334 14.333 -74.001 43l-3 7l40 27c8 -9.33301 13 -15 15 -17
c6.66699 -6 13.334 -9.33301 20.001 -10h4c16 0 25 9.66699 27 29v15v15c-2 20 -12.667 30 -32 30h-30v72c-54 7.33301 -99.333 29.666 -136 66.999s-58 83 -64 137c-0.666992 5.33301 -1.33398 13 -2.00098 23c-2.66699 28.667 -4 77 -4 145c0 78.667 2 134.667 6 168
c7.33301 59.333 32.5 108.166 75.5 146.499s94.833 57.5 155.5 57.5c70 0 126.333 -27.667 169 -83l-56 -49c-3.33301 3.33301 -7.33301 7 -12 11c-28 26.667 -61.667 40 -101 40c-36.667 0 -68.167 -11.833 -94.5 -35.5s-41.5 -53.834 -45.5 -90.501
c-4 -32.667 -6 -87.667 -6 -165c0 -78 2 -133.333 6 -166c4 -36.667 19.167 -66.834 45.5 -90.501s57.833 -35.5 94.5 -35.5c45.333 0 82.666 16.667 111.999 50c2 2.66699 6 7.33398 12 14.001z" />
    <glyph glyph-name="Egrave" unicode="&#xc8;" horiz-adv-x="464" 
d="M268 794l-36.002 -25l-106 100c-9.33301 9.33301 -14 21 -14 35c0 16.667 6.66699 30 20 40c8.66699 6 18.334 9 29.001 9c20.667 0 35.334 -9 44.001 -27c3.33301 -6 24.333 -50 63 -132zM413.998 0h-354v725h344v-80h-254v-232h234v-80h-234v-253h264v-80z" />
    <glyph glyph-name="Eacute" unicode="&#xc9;" horiz-adv-x="464" 
d="M337 869c-4 -4.66699 -39.001 -38 -105.001 -100l-36 25l64 134c8 16.667 22.333 25 43 25c10.667 0 20.334 -3 29.001 -9c13.333 -10 20 -23.333 20 -40c0 -14 -5 -25.667 -15 -35zM413.999 0h-354v725h344v-80h-254v-232h234v-80h-234v-253h264v-80z" />
    <glyph glyph-name="Ecircumflex" unicode="&#xca;" horiz-adv-x="464" 
d="M350 797l-38 -26l-81 94l-82 -94l-37 26l68 130c1.33301 2.66699 3 5.33398 5 8.00098h91c1.33301 -2.66699 3 -5.33398 5 -8.00098zM414 0h-354v725h344v-80h-254v-231h234v-80h-234v-254h264v-80z" />
    <glyph glyph-name="Edieresis" unicode="&#xcb;" horiz-adv-x="464" 
d="M376 862c0 -14.667 -5.5 -27.167 -16.5 -37.5s-24.167 -15.5 -39.5 -15.5s-28.333 5.16699 -39 15.5s-16 22.833 -16 37.5s5.33301 27.334 16 38.001s23.667 16 39 16s28.5 -5.33301 39.5 -16s16.5 -23.334 16.5 -38.001zM202 862c0 -14.667 -5.5 -27.167 -16.5 -37.5
s-23.833 -15.5 -38.5 -15.5c-15.333 0 -28.5 5.16699 -39.5 15.5s-16.5 22.833 -16.5 37.5s5.5 27.334 16.5 38.001s24.167 16 39.5 16c14.667 0 27.5 -5.33301 38.5 -16s16.5 -23.334 16.5 -38.001zM414 0h-354v725h344v-80h-254v-231h234v-80h-234v-254h264v-80z" />
    <glyph glyph-name="Igrave" unicode="&#xcc;" horiz-adv-x="230" 
d="M155 794l-36.002 -25l-105 100c-10 9.33301 -15 21 -15 35c0 16.667 6.66699 30 20 40c8.66699 6 18.334 9 29.001 9c20.667 0 35.334 -9 44.001 -27c3.33301 -6 24.333 -50 63 -132zM163.998 0h-90v725h90v-725z" />
    <glyph glyph-name="Iacute" unicode="&#xcd;" horiz-adv-x="230" 
d="M224 869c-4 -4.66699 -39.001 -38 -105.001 -100l-36 25l64 134c8 16.667 22.333 25 43 25c10.667 0 20.334 -3 29.001 -9c13.333 -10 20 -23.333 20 -40c0 -14 -5 -25.667 -15 -35zM163.999 0h-90v725h90v-725z" />
    <glyph glyph-name="Icircumflex" unicode="&#xce;" horiz-adv-x="230" 
d="M238 797l-37 -25.999l-82 94l-81 -94l-38 26l69 130c0.666992 2 2 4.66699 4 8h92c1.33301 -2.66699 3 -5.33398 5 -8.00098zM164 0.000976562h-90v725h90v-725z" />
    <glyph glyph-name="Idieresis" unicode="&#xcf;" horiz-adv-x="230" 
d="M262 862c0 -14.667 -5.5 -27.167 -16.5 -37.5s-23.833 -15.5 -38.5 -15.5c-15.333 0 -28.333 5.16699 -39 15.5s-16 22.833 -16 37.5s5.33301 27.334 16 38.001s23.667 16 39 16c14.667 0 27.5 -5.33301 38.5 -16s16.5 -23.334 16.5 -38.001zM88 862
c0 -14.667 -5.33301 -27.167 -16 -37.5s-23.667 -15.5 -39 -15.5s-28.5 5.16699 -39.5 15.5s-16.5 22.833 -16.5 37.5s5.5 27.334 16.5 38.001s24.167 16 39.5 16s28.333 -5.33301 39 -16s16 -23.334 16 -38.001zM165 0h-90v725h90v-725z" />
    <glyph glyph-name="Eth" unicode="&#xd0;" horiz-adv-x="560" 
d="M510 363c0 -79.333 -2.00098 -135.332 -6.00098 -167.999c-7.33301 -55.333 -28.666 -99.833 -63.999 -133.5s-81 -53.167 -137 -58.5c-48.667 -4.66699 -114 -5.66699 -196 -3c-5.33301 0 -11 0.666992 -17 2v322h-50v81h50v319c2.66699 0.666992 8.33398 1 17.001 1
c84.667 3.33301 150 2.66602 196 -2.00098c56 -5.33301 101.667 -24.833 137 -58.5s56.666 -78.167 63.999 -133.5c4 -32.667 6 -88.667 6 -168zM419.999 363.001c0 67.333 -2.33301 121 -7 161c-7.33301 69.333 -46 109 -116 119c-24 3.33301 -63 4 -117 2v-240h90v-81h-90
v-243c54 -2.66699 93 -2 117 2c70 10 108.667 49.667 116 119c4.66699 40 7 93.667 7 161z" />
    <glyph glyph-name="Ntilde" unicode="&#xd1;" horiz-adv-x="548" 
d="M417 890c-9.33301 -30.667 -25.667 -53.333 -49 -68c-16 -10 -30.333 -15 -43 -15c-16 0 -35.167 6 -57.5 18s-37.5 18 -45.5 18c-20.667 0 -35.667 -11 -45 -33l-48 24c9.33301 30 25.333 52.333 48 67c16 10 30.667 15 44 15c14.667 0 33.5 -6 56.5 -18
s38.5 -18 46.5 -18c20 0 35 11 45 33zM477.999 0.000976562l-80 -0.000976562l-206 444c-24 51.333 -39.667 96.333 -47 135h-2c4 -29.333 8.33301 -74.333 13 -135l5 -444h-90v725h80l205 -443c24 -51.333 39.667 -96.333 47 -135h2c-4 28.667 -8 73.334 -12 134.001
l-5 444h90v-725z" />
    <glyph glyph-name="Ograve" unicode="&#xd2;" horiz-adv-x="573" 
d="M322 794l-36.001 -25l-105 100c-10 9.33301 -15 21 -15 35c0 16.667 7 30 21 40c8.66699 6 18.334 9 29.001 9c20 0 34.333 -9 43 -27c4 -6 25 -50 63 -132zM522.999 363c0 -77.333 -2.33301 -133.333 -7 -168c-7.33301 -59.333 -32.5 -108.333 -75.5 -147
s-94.5 -58 -154.5 -58s-111.5 19.333 -154.5 58s-68.167 87.667 -75.5 147c-4 34.667 -6 90.667 -6 168c0 76.667 2 132.334 6 167.001c7.33301 59.333 32.5 108.333 75.5 147s94.5 58 154.5 58s111.5 -19.333 154.5 -58s68.167 -87.667 75.5 -147
c4.66699 -34.667 7 -90.334 7 -167.001zM431.999 363c0 74.667 -2.16699 130 -6.5 166s-19.5 65.833 -45.5 89.5s-57.333 35.5 -94 35.5c-36 0 -67.167 -11.833 -93.5 -35.5s-41.666 -53.5 -45.999 -89.5s-6.5 -91.333 -6.5 -166c0 -75.333 2.16699 -131 6.5 -167
s19.666 -65.833 45.999 -89.5s57.5 -35.5 93.5 -35.5c36.667 0 68 11.833 94 35.5s41.167 53.5 45.5 89.5s6.5 91.667 6.5 167z" />
    <glyph glyph-name="Oacute" unicode="&#xd3;" horiz-adv-x="573" 
d="M392 869c-4.66699 -4.66699 -40.001 -38 -106.001 -100l-35 25l63 134c8 16.667 22.333 25 43 25c10.667 0 20.334 -3 29.001 -9c13.333 -10 20 -23.333 20 -40c0 -14 -4.66699 -25.667 -14 -35zM522.999 363c0 -77.333 -2.33301 -133.333 -7 -168
c-7.33301 -59.333 -32.5 -108.333 -75.5 -147s-94.5 -58 -154.5 -58s-111.5 19.333 -154.5 58s-68.167 87.667 -75.5 147c-4 34.667 -6 90.667 -6 168c0 76.667 2 132.334 6 167.001c7.33301 59.333 32.5 108.333 75.5 147s94.5 58 154.5 58s111.5 -19.333 154.5 -58
s68.167 -87.667 75.5 -147c4.66699 -34.667 7 -90.334 7 -167.001zM431.999 363c0 74.667 -2.16699 130 -6.5 166s-19.5 65.833 -45.5 89.5s-57.333 35.5 -94 35.5c-36 0 -67.167 -11.833 -93.5 -35.5s-41.666 -53.5 -45.999 -89.5s-6.5 -91.333 -6.5 -166
c0 -75.333 2.16699 -131 6.5 -167s19.666 -65.833 45.999 -89.5s57.5 -35.5 93.5 -35.5c36.667 0 68 11.833 94 35.5s41.167 53.5 45.5 89.5s6.5 91.667 6.5 167z" />
    <glyph glyph-name="Ocircumflex" unicode="&#xd4;" horiz-adv-x="573" 
d="M406 797l-38 -26l-81 94l-82 -94l-37 26l68 130c1.33301 2.66699 3 5.33398 5 8.00098h91c1.33301 -2.66699 3 -5.33398 5 -8.00098zM523 363c0 -78.667 -2.00195 -134.333 -6.00195 -167c-7.33301 -60 -32.666 -109.333 -75.999 -148s-94.666 -58 -153.999 -58
c-60 0 -111.667 19.333 -155 58s-68.333 88 -75 148c-4.66699 35.333 -7 91 -7 167s2.33301 132 7 168c6.66699 59.333 31.5 108.166 74.5 146.499s94.833 57.5 155.5 57.5c60 0 111.5 -19.167 154.5 -57.5s68.167 -87.166 75.5 -146.499c4 -33.333 6 -89.333 6 -168z
M432.998 363.001c0 74.667 -2.33301 130 -7 166s-20 65.833 -46 89.5s-57 35.5 -93 35.5c-36.667 0 -68 -11.833 -94 -35.5s-41.167 -53.5 -45.5 -89.5s-6.5 -91.333 -6.5 -166s2 -129.667 6 -165c4.66699 -37.333 20 -67.833 46 -91.5s57.333 -35.5 94 -35.5
c36 0 67 11.833 93 35.5s41.333 54.167 46 91.5c4.66699 35.333 7 90.333 7 165z" />
    <glyph glyph-name="Otilde" unicode="&#xd5;" horiz-adv-x="573" 
d="M432 890c-10 -30.667 -26.332 -53.333 -48.999 -68c-16 -10 -30.333 -15 -43 -15c-16 0 -35.167 6 -57.5 18s-37.5 18 -45.5 18c-20.667 0 -35.667 -11 -45 -33l-49 24c9.33301 30 25.666 52.333 48.999 67c16 10 30.667 15 44 15c14.667 0 33.5 -6 56.5 -18
s38.5 -18 46.5 -18c20 0 34.667 11 44 33zM523.001 363.001c0 -78.667 -2.00195 -134.333 -6.00195 -167c-7.33301 -60 -32.666 -109.333 -75.999 -148s-94.666 -58 -153.999 -58c-60 0 -111.667 19.333 -155 58s-68.333 88 -75 148c-4.66699 35.333 -7 91 -7 167
s2.33301 132 7 168c6.66699 59.333 31.5 108.166 74.5 146.499s94.833 57.5 155.5 57.5c60 0 111.5 -19.167 154.5 -57.5s68.167 -87.166 75.5 -146.499c4 -33.333 6 -89.333 6 -168zM432.999 363.002c0 74.667 -2.33301 130 -7 166s-20 65.833 -46 89.5s-57 35.5 -93 35.5
c-36.667 0 -68 -11.833 -94 -35.5s-41.167 -53.5 -45.5 -89.5s-6.5 -91.333 -6.5 -166s2 -129.667 6 -165c4.66699 -37.333 20 -67.833 46 -91.5s57.333 -35.5 94 -35.5c36 0 67 11.833 93 35.5s41.333 54.167 46 91.5c4.66699 35.333 7 90.333 7 165z" />
    <glyph glyph-name="Odieresis" unicode="&#xd6;" horiz-adv-x="573" 
d="M429 862c0 -14.667 -5.5 -27.167 -16.5 -37.5s-24.167 -15.5 -39.5 -15.5s-28.333 5.16699 -39 15.5s-16 22.833 -16 37.5s5.33301 27.334 16 38.001s23.667 16 39 16s28.5 -5.33301 39.5 -16s16.5 -23.334 16.5 -38.001zM255 862c0 -14.667 -5.5 -27.167 -16.5 -37.5
s-23.833 -15.5 -38.5 -15.5c-15.333 0 -28.5 5.16699 -39.5 15.5s-16.5 22.833 -16.5 37.5s5.5 27.334 16.5 38.001s24.167 16 39.5 16c14.667 0 27.5 -5.33301 38.5 -16s16.5 -23.334 16.5 -38.001zM523 363c0 -78.667 -2.00195 -134.333 -6.00195 -167
c-7.33301 -60 -32.666 -109.333 -75.999 -148s-94.666 -58 -153.999 -58c-60 0 -111.667 19.333 -155 58s-68.333 88 -75 148c-4.66699 35.333 -7 91 -7 167s2.33301 132 7 168c6.66699 59.333 31.5 108.166 74.5 146.499s94.833 57.5 155.5 57.5
c60 0 111.5 -19.167 154.5 -57.5s68.167 -87.166 75.5 -146.499c4 -33.333 6 -89.333 6 -168zM432.998 363.001c0 74.667 -2.33301 130 -7 166s-20 65.833 -46 89.5s-57 35.5 -93 35.5c-36.667 0 -68 -11.833 -94 -35.5s-41.167 -53.5 -45.5 -89.5s-6.5 -91.333 -6.5 -166
s2 -129.667 6 -165c4.66699 -37.333 20 -67.833 46 -91.5s57.333 -35.5 94 -35.5c36 0 67 11.833 93 35.5s41.333 54.167 46 91.5c4.66699 35.333 7 90.333 7 165z" />
    <glyph glyph-name="multiply" unicode="&#xd7;" horiz-adv-x="400" 
d="M348 164l-57 -58l-81 81l-81 -81l-57 58l81 81l-81 80l57 58l81 -81l81 81l57 -58l-81 -81z" />
    <glyph glyph-name="Oslash" unicode="&#xd8;" horiz-adv-x="574" 
d="M524 363c0 -76.667 -2.00098 -132.666 -6.00098 -167.999c-7.33301 -59.333 -32.666 -108.333 -75.999 -147s-95 -58 -155 -58c-28.667 0 -56 5 -82 15l-29 -88l-62 20l33 99c-52 38.667 -82 91.667 -90 159c-4.66699 38 -7 94 -7 168c0 73.333 2.33301 129.333 7 168
c7.33301 59.333 32.5 108.166 75.5 146.499s94.5 57.5 154.5 57.5c30 0 57.667 -4.66699 83 -14l28 87l62 -20l-32 -99c51.333 -39.333 81.333 -92 90 -158c4 -36 6 -92 6 -168zM433.999 363.001c0 76.667 -2 131.667 -6 165c-3.33301 26 -13 49.667 -29 71l-169 -516
c18 -8 37 -12 57 -12c36.667 0 68.167 11.833 94.5 35.5s41.833 54.167 46.5 91.5c4 32.667 6 87.667 6 165zM344.999 642.001c-18.667 8 -38 12.001 -58 12.001c-36.667 0 -68 -11.833 -94 -35.5s-41.333 -53.834 -46 -90.501c-4 -33.333 -6 -88.333 -6 -165
c0 -77.333 2 -132.333 6 -165c3.33301 -27.333 13 -51 29 -71z" />
    <glyph glyph-name="Ugrave" unicode="&#xd9;" 
d="M324 794l-36.002 -25l-105 100c-10 9.33301 -15 21 -15 35c0 16.667 6.66699 30 20 40c8.66699 6 18.334 9 29.001 9c20.667 0 35.334 -9 44.001 -27c3.33301 -6 24.333 -50 63 -132zM516.998 362c0 -64 -2.33301 -119.668 -7 -167.001
c-6 -59.333 -29.333 -108.333 -70 -147s-91.334 -58 -152.001 -58s-111.334 19.333 -152.001 58s-64 87.667 -70 147c-4 42.667 -6 98.334 -6 167.001v363h90v-363c0 -75.333 2 -130 6 -164c4.66699 -38 18.834 -68.667 42.501 -92s53.5 -35 89.5 -35
c39.333 0 71 13.667 95 41c20.667 24 33.334 56.333 38.001 97c4 37.333 6 88.333 6 153v363h90v-363z" />
    <glyph glyph-name="Uacute" unicode="&#xda;" 
d="M393 869c-4 -4.66699 -39.001 -38 -105.001 -100l-36 25l64 134c8 16.667 22.333 25 43 25c10.667 0 20.334 -3 29.001 -9c13.333 -10 20 -23.333 20 -40c0 -14 -5 -25.667 -15 -35zM516.999 362c0 -64 -2.33301 -119.668 -7 -167.001
c-6 -59.333 -29.333 -108.333 -70 -147s-91.334 -58 -152.001 -58s-111.334 19.333 -152.001 58s-64 87.667 -70 147c-4 42.667 -6 98.334 -6 167.001v363h90v-363c0 -75.333 2 -130 6 -164c4.66699 -38 18.834 -68.667 42.501 -92s53.5 -35 89.5 -35
c40 0 71.667 13.667 95 41c20.667 24 33.334 56.333 38.001 97c4 37.333 6 88.333 6 153v363h90v-363z" />
    <glyph glyph-name="Ucircumflex" unicode="&#xdb;" 
d="M407 797l-37 -26l-82 94l-81 -94l-38 26l68 130c1.33301 2.66699 3 5.33398 5 8.00098h91c2 -2.66699 3.66699 -5.33398 5 -8.00098zM517 362c0 -64 -2.33203 -119.668 -6.99902 -167.001c-6 -59.333 -29.333 -108.333 -70 -147s-91.334 -58 -152.001 -58
s-111.334 19.333 -152.001 58s-63.667 87.667 -69 147c-4.66699 44 -7 99.667 -7 167v363h90v-363c0 -74 2.33301 -128.667 7 -164c4 -38 17.833 -68.667 41.5 -92s53.5 -35 89.5 -35c40 0 71.667 13.667 95 41c20.667 24 33.334 56.667 38.001 98
c4 36.667 6 87.334 6 152.001v363h90v-363z" />
    <glyph glyph-name="Udieresis" unicode="&#xdc;" 
d="M431 862c0 -14.667 -5.5 -27.167 -16.5 -37.5s-24.167 -15.5 -39.5 -15.5s-28.333 5.16699 -39 15.5s-16 22.833 -16 37.5s5.33301 27.334 16 38.001s23.667 16 39 16s28.5 -5.33301 39.5 -16s16.5 -23.334 16.5 -38.001zM257 862c0 -14.667 -5.5 -27.167 -16.5 -37.5
s-23.833 -15.5 -38.5 -15.5c-15.333 0 -28.5 5.16699 -39.5 15.5s-16.5 22.833 -16.5 37.5s5.5 27.334 16.5 38.001s24.167 16 39.5 16c14.667 0 27.5 -5.33301 38.5 -16s16.5 -23.334 16.5 -38.001zM517 362c0 -64 -2.33203 -119.668 -6.99902 -167.001
c-6 -59.333 -29.333 -108.333 -70 -147s-91.334 -58 -152.001 -58s-111.334 19.333 -152.001 58s-63.667 87.667 -69 147c-4.66699 44 -7 99.667 -7 167v363h90v-363c0 -74 2.33301 -128.667 7 -164c4 -38 17.833 -68.667 41.5 -92s53.5 -35 89.5 -35
c40 0 71.667 13.667 95 41c20.667 24 33.334 56.667 38.001 98c4 36.667 6 87.334 6 152.001v363h90v-363z" />
    <glyph glyph-name="Yacute" unicode="&#xdd;" horiz-adv-x="540" 
d="M510 695l-195 -374v-321h-90v321l-195 374l78 39l162 -322l162 322zM363 869c-4 -4.66699 -39.001 -38 -105.001 -100l-36 25l64 134c8 16.667 22.333 25 43 25c10.667 0 20.334 -3 29.001 -9c13.333 -10 20 -23.333 20 -40c0 -14 -5 -25.667 -15 -35z" />
    <glyph glyph-name="Thorn" unicode="&#xde;" horiz-adv-x="496" 
d="M250 171c-32.667 -2.66699 -66 -3.66309 -100 -2.99609v-168h-90v760h90v-163c34 0 67.333 -1.33301 100 -4c58.667 -4.66699 107.667 -26.334 147 -65.001s59 -87.334 59 -146.001s-19.667 -107.334 -59 -146.001s-88.333 -60.334 -147 -65.001zM150 248.004
c48 0 81.332 0.666992 99.999 2c34 2.66699 61.667 15.667 83 39s32 54.333 32 93s-10.667 69.667 -32 93s-49 36.333 -83 39c-19.333 2 -52.666 3 -99.999 3v-269z" />
    <glyph glyph-name="germandbls" unicode="&#xdf;" horiz-adv-x="568" 
d="M523 199c0 -57.333 -22.833 -106.498 -68.5 -147.498s-99.834 -61.5 -162.501 -61.5c-15.333 0 -27 0.666992 -35 2c-15.333 2.66699 -28.666 6 -39.999 10l23 74c10 -2 18.667 -3.5 26 -4.5s16 -1.16699 26 -0.5c37.333 0 69.833 13.167 97.5 39.5s41.5 57.5 41.5 93.5
c0 37.333 -13.333 68.666 -40 93.999c-18.667 17.333 -41.334 29 -68.001 35c-19.333 4 -47.666 6 -84.999 6v76c35.333 0 62 2 80 6c24.667 5.33301 46 16.333 64 33c22.667 21.333 34 48.666 34 81.999c0 32 -12.333 59.833 -37 83.5s-53.667 35.5 -87 35.5
c-41.333 0 -74.666 -14 -99.999 -42c-24 -25.333 -38 -58.666 -42 -99.999c-3.33301 -38 -5 -88 -5 -150v-363h-90v363c0 78 2 133.667 6 167c7.33301 59.333 32.666 108.333 75.999 147s95 58 155 58c58 0 108.333 -19 151 -57s64 -83.667 64 -137
c0 -34 -9.5 -65.5 -28.5 -94.5s-43.5 -51.5 -73.5 -67.5c35.333 -16.667 63.833 -41.334 85.5 -74.001s32.5 -68 32.5 -106z" />
    <glyph glyph-name="agrave" unicode="&#xe0;" horiz-adv-x="439" 
d="M286 545l-35.001 -26l-106 100c-10 9.33301 -15 21 -15 35c0 16.667 7 30 21 40c8.66699 6 18.334 9 29.001 9c20 0 34.667 -9 44 -27c3.33301 -6 24 -49.667 62 -131zM418.999 29l-60.001 -38c-2 1.33301 -4.33301 3.33301 -7 6
c-14.667 11.333 -24.334 25.666 -29.001 42.999c-29.333 -33.333 -67.333 -50 -114 -50c-50 0 -90.833 13.667 -122.5 41s-47.5 62.666 -47.5 105.999c0 60.667 26 105.334 78 134.001c41.333 22.667 95 34 161 34h23c0 8.66699 -0.666992 19.667 -2 33
c-4 22 -14.333 39.833 -31 53.5s-35.667 20.5 -57 20.5c-27.333 0 -55.666 -12.333 -84.999 -37l-49 44c12 20 31.333 36.333 58 49c24.667 11.333 50 17 76 17c44.667 0 83 -14.167 115 -42.5s50.667 -63.833 56 -106.5c3.33301 -30.667 5 -62.667 5 -96v-108
c2.66699 -35.333 11.334 -65.666 26.001 -90.999c0 -1.33301 2 -5.33301 6 -12zM304.998 233l-23 -0.000976562c-106 0 -159 -31.667 -159 -95c0 -22 7.83301 -40 23.5 -54s36.834 -21 63.501 -21c22.667 0 42.667 7.33301 60 22s27.666 33.334 30.999 56.001
c2.66699 20 4 50.667 4 92z" />
    <glyph glyph-name="aacute" unicode="&#xe1;" horiz-adv-x="439" 
d="M273 619l-105.001 -100l-36 26l64 133c8 16.667 22 25 42 25c10.667 0 20.334 -3 29.001 -9c14 -10 21 -23.333 21 -40c0 -14 -5 -25.667 -15 -35zM418.999 29l-60.001 -38c-2 1.33301 -4.33301 3.33301 -7 6c-14.667 11.333 -24.334 25.666 -29.001 42.999
c-29.333 -33.333 -67.333 -50 -114 -50c-50 0 -90.833 13.667 -122.5 41s-47.5 62.666 -47.5 105.999c0 60.667 26 105.334 78 134.001c41.333 22.667 95 34 161 34h23c0 8.66699 -0.666992 19.667 -2 33c-4 22 -14.333 39.833 -31 53.5s-35.667 20.5 -57 20.5
c-27.333 0 -55.666 -12.333 -84.999 -37l-49 44c12 20 31.333 36.333 58 49c24.667 11.333 50 17 76 17c44.667 0 83 -14.167 115 -42.5s50.667 -63.833 56 -106.5c3.33301 -30.667 5 -62.667 5 -96v-108c2.66699 -35.333 11.334 -65.666 26.001 -90.999
c0 -1.33301 2 -5.33301 6 -12zM304.998 233l-23 -0.000976562c-106 0 -159 -31.667 -159 -95c0 -22 7.83301 -40 23.5 -54s36.834 -21 63.501 -21c22.667 0 42.667 7.33301 60 22s27.666 33.334 30.999 56.001c2.66699 20 4 50.667 4 92z" />
    <glyph glyph-name="acircumflex" unicode="&#xe2;" horiz-adv-x="439" 
d="M330 547l-37 -26l-82 94l-81 -94l-38 26l68 130c1.33301 2.66699 3 5.33398 5 8.00098h92c2 -2.66699 3.66699 -5.33398 5 -8.00098zM419 29l-60.001 -38c-2 1.33301 -4.33301 3.33301 -7 6c-14.667 11.333 -24.334 25.666 -29.001 42.999
c-29.333 -33.333 -67.333 -50 -114 -50c-50 0 -90.833 13.667 -122.5 41s-47.5 62.666 -47.5 105.999c0 60.667 26 105.334 78 134.001c41.333 22.667 95 34 161 34h23c0 8.66699 -0.666992 19.667 -2 33c-4 22 -14.333 39.833 -31 53.5s-35.667 20.5 -57 20.5
c-27.333 0 -55.666 -12.333 -84.999 -37l-49 44c12 20 31.333 36.333 58 49c24.667 11.333 50 17 76 17c44.667 0 83 -14.167 115 -42.5s50.667 -63.833 56 -106.5c3.33301 -30.667 5 -62.667 5 -96v-108c2.66699 -35.333 11.334 -65.666 26.001 -90.999
c0 -1.33301 2 -5.33301 6 -12zM304.999 233l-23 -0.000976562c-106 0 -159 -31.667 -159 -95c0 -22 7.83301 -40 23.5 -54s36.834 -21 63.501 -21c22.667 0 42.667 7.33301 60 22s27.666 33.334 30.999 56.001c2.66699 20 4 50.667 4 92z" />
    <glyph glyph-name="atilde" unicode="&#xe3;" horiz-adv-x="439" 
d="M370 640c-7.33301 -23.333 -19.3311 -43 -35.998 -59s-35.667 -24 -57 -24c-16 0 -35.167 6 -57.5 18s-37.5 18 -45.5 18c-20 0 -34.667 -11 -44 -33l-49 24c7.33301 22.667 19.166 42 35.499 58s35.166 24 56.499 24c14.667 0 33.5 -6 56.5 -18s38.5 -18 46.5 -18
c20.667 0 35.667 11 45 33zM419.002 29l-60.001 -38c-2 1.33301 -4.33301 3.33301 -7 6c-14.667 11.333 -24.334 25.666 -29.001 42.999c-29.333 -33.333 -67.333 -50 -114 -50c-50 0 -90.833 13.667 -122.5 41s-47.5 62.666 -47.5 105.999c0 60.667 26 105.334 78 134.001
c41.333 22.667 95 34 161 34h23c0 8.66699 -0.666992 19.667 -2 33c-4 22 -14.333 39.833 -31 53.5s-35.667 20.5 -57 20.5c-27.333 0 -55.666 -12.333 -84.999 -37l-49 44c12 20 31.333 36.333 58 49c24.667 11.333 50 17 76 17c44.667 0 83 -14.167 115 -42.5
s50.667 -63.833 56 -106.5c3.33301 -30.667 5 -62.667 5 -96v-108c2.66699 -35.333 11.334 -65.666 26.001 -90.999c0 -1.33301 2 -5.33301 6 -12zM305.001 233l-23 -0.000976562c-106 0 -159 -31.667 -159 -95c0 -22 7.83301 -40 23.5 -54s36.834 -21 63.501 -21
c22.667 0 42.667 7.33301 60 22s27.666 33.334 30.999 56.001c2.66699 20 4 50.667 4 92z" />
    <glyph glyph-name="adieresis" unicode="&#xe4;" horiz-adv-x="439" 
d="M373 612c0 -14.667 -5.5 -27.167 -16.5 -37.5s-24.167 -15.5 -39.5 -15.5s-28.333 5.16699 -39 15.5s-16 22.833 -16 37.5s5.5 27.334 16.5 38.001s23.833 16 38.5 16c15.333 0 28.5 -5.33301 39.5 -16s16.5 -23.334 16.5 -38.001zM199 612
c0 -14.667 -5.5 -27.167 -16.5 -37.5s-23.833 -15.5 -38.5 -15.5c-15.333 0 -28.5 5.16699 -39.5 15.5s-16.5 22.833 -16.5 37.5s5.5 27.334 16.5 38.001s24.167 16 39.5 16c14.667 0 27.5 -5.33301 38.5 -16s16.5 -23.334 16.5 -38.001zM419 29l-60.001 -38
c-2 1.33301 -4.33301 3.33301 -7 6c-14.667 11.333 -24.334 25.666 -29.001 42.999c-29.333 -33.333 -67.333 -50 -114 -50c-50 0 -90.833 13.667 -122.5 41s-47.5 62.666 -47.5 105.999c0 60.667 26 105.334 78 134.001c41.333 22.667 95 34 161 34h23
c0 8.66699 -0.666992 19.667 -2 33c-4 22 -14.333 39.833 -31 53.5s-35.667 20.5 -57 20.5c-27.333 0 -55.666 -12.333 -84.999 -37l-49 44c12 20 31.333 36.333 58 49c24.667 11.333 50 17 76 17c44.667 0 83 -14.167 115 -42.5s50.667 -63.833 56 -106.5
c3.33301 -30.667 5 -62.667 5 -96v-108c2.66699 -35.333 11.334 -65.666 26.001 -90.999c0 -1.33301 2 -5.33301 6 -12zM304.999 233l-23 -0.000976562c-106 0 -159 -31.667 -159 -95c0 -22 7.83301 -40 23.5 -54s36.834 -21 63.501 -21c22.667 0 42.667 7.33301 60 22
s27.666 33.334 30.999 56.001c2.66699 20 4 50.667 4 92z" />
    <glyph glyph-name="aring" unicode="&#xe5;" horiz-adv-x="439" 
d="M325 609c0 -26.667 -9.33301 -49 -28 -67s-41 -27 -67 -27c-26.667 0 -49.334 9.16699 -68.001 27.5s-28 40.5 -28 66.5s9.33301 48.333 28 67s41.334 28 68.001 28s49.167 -9.16699 67.5 -27.5s27.5 -40.833 27.5 -67.5zM419 29l-60.001 -38
c-2 1.33301 -4.33301 3.33301 -7 6c-14.667 11.333 -24.334 25.666 -29.001 42.999c-29.333 -33.333 -67.333 -50 -114 -50c-50 0 -90.833 13.667 -122.5 41s-47.5 62.666 -47.5 105.999c0 60.667 26 105.334 78 134.001c41.333 22.667 95 34 161 34h23
c0 8.66699 -0.666992 19.667 -2 33c-4 22 -14.333 39.833 -31 53.5s-35.667 20.5 -57 20.5c-27.333 0 -55.666 -12.333 -84.999 -37l-49 44c12 20 31.333 36.333 58 49c24.667 11.333 50 17 76 17c44.667 0 83 -14.167 115 -42.5s50.667 -63.833 56 -106.5
c3.33301 -30.667 5 -62.667 5 -96v-108c2.66699 -35.333 11.334 -65.666 26.001 -90.999c0 -1.33301 2 -5.33301 6 -12zM267.999 609c0 10.667 -3.83301 20 -11.5 28s-16.5 12 -26.5 12c-10.667 0 -19.834 -4 -27.501 -12s-11.5 -17.333 -11.5 -28
s3.83301 -19.834 11.5 -27.501s16.834 -11.5 27.501 -11.5s19.667 3.83301 27 11.5s11 16.834 11 27.501zM304.999 233l-23 -0.000976562c-106 0 -159 -31.667 -159 -95c0 -22 7.83301 -40 23.5 -54s36.834 -21 63.501 -21c22.667 0 42.667 7.33301 60 22
s27.666 33.334 30.999 56.001c2.66699 20 4 50.667 4 92z" />
    <glyph glyph-name="ae" unicode="&#xe6;" horiz-adv-x="693" 
d="M650 221l-265 -0.00195312c0 -23.333 1.33301 -46.333 4 -69c2.66699 -25.333 12.334 -46.666 29.001 -63.999s37.667 -26 63 -26c28.667 0 53 7.66699 73 23h1c10 7.33301 19.667 17 29 29l48 -40c-30.667 -56 -81 -84 -151 -84c-62.667 0 -108.667 24.667 -138 74
c-26 -49.333 -70 -74 -132 -74c-48 0 -87.667 11.667 -119 35c-35.333 26 -53 62 -53 108c0 65.333 30 110.333 90 135c39.333 16 97.666 24 174.999 24c0 18 -1 32.667 -3 44c-4 21.333 -14.667 39.333 -32 54s-36.666 22 -57.999 22c-27.333 0 -56.333 -13 -87 -39l-48 44
c12 20.667 31 37.167 57 49.5s52 18.5 78 18.5c56 0 100.333 -21.667 133 -65c31.333 43.333 76.333 65 135 65c44 0 81.667 -13.167 113 -39.5s49.666 -61.166 54.999 -104.499c2 -16 3 -47 3 -93v-27zM570 291.998c0 16 -0.666992 31.333 -2 46
c-2.66699 22 -12.667 40.333 -30 55s-37.333 22 -60 22s-42.667 -7.33301 -60 -22s-27 -33 -29 -55c-1.33301 -10 -2.33301 -25.333 -3 -46h184zM303 220.998c-10.667 0.666992 -21.667 0.666992 -33 0c-98.667 0 -148 -29 -148 -87c0 -24 8.33301 -42.167 25 -54.5
s37.334 -18.5 62.001 -18.5c23.333 0 43.333 7.16699 60 21.5s26.667 33 30 56s4.66602 50.5 3.99902 82.5z" />
    <glyph glyph-name="ccedilla" unicode="&#xe7;" horiz-adv-x="369" 
d="M360 71c-2.66699 -4.66699 -4.33594 -8 -5.00293 -10c-25.333 -38 -59.666 -61 -102.999 -69h-4v-25c18 -4 32.667 -12.667 44 -26s17.333 -29 18 -47c0 -8 0.333008 -14.667 1 -20c0 -4.66699 -0.333008 -11.334 -1 -20.001
c-0.666992 -23.333 -9.16699 -41.5 -25.5 -54.5s-36.166 -19.5 -59.499 -19.5c-36.667 0 -61.334 14.333 -74.001 43l-3 7l40 27c8.66699 -10 13.667 -15.667 15 -17c6.66699 -6 13.334 -9.33301 20.001 -10h4c16 0 25 9.66699 27 29c0 2 0.333008 7 1 15
c-0.666992 8 -1 13 -1 15c-1.33301 20 -12 30 -32 30c-1.33301 2 -11.333 2 -30 0v73c-38.667 6.66699 -71.167 23.5 -97.5 50.5s-40.833 59.167 -43.5 96.5l-1 15c-2.66699 38.667 -4 66.667 -4 84c0 38 1.66699 70.667 5 98c5.33301 42.667 24.166 78.167 56.499 106.5
s70.833 42.5 115.5 42.5c47.333 0 87.333 -19 120 -57c2.66699 -3.33301 4.33398 -5.66602 5.00098 -6.99902l-52 -44c-26.667 24.667 -51 37 -73 37c-22.667 0 -42.5 -8.5 -59.5 -25.5s-27 -37.167 -30 -60.5s-4.5 -54 -4.5 -92c0 -39.333 1.5 -70.5 4.5 -93.5
s12.667 -42 29 -57s36.5 -22.5 60.5 -22.5c28.667 0 55.334 15.333 80.001 46z" />
    <glyph glyph-name="egrave" unicode="&#xe8;" horiz-adv-x="437" 
d="M300 545l-35.002 -26l-106 100c-10 9.33301 -15 21 -15 35c0 16.667 7 30 21 40c8.66699 6 18.334 9 29.001 9c20.667 0 35.334 -9 44.001 -27c3.33301 -6 24 -49.667 62 -131zM394.998 209l-264.999 0.00195312c0 -23.333 1.66699 -46 5 -68s13.333 -40.667 30 -56
s36.334 -23 59.001 -23c39.333 0 73.666 17.333 102.999 52l48 -40c-30.667 -56 -81 -84 -151 -84c-46 0 -85.333 14.167 -118 42.5s-50.667 64.166 -54 107.499c-3.33301 38.667 -5 68.667 -5 90c0 43.333 1.66699 78.666 5 105.999c5.33301 43.333 24.166 79 56.499 107
s70.833 42 115.5 42c44 0 81.5 -13.833 112.5 -41.5s49.5 -63.5 55.5 -107.5c2 -16 3 -51 3 -105v-22zM311.999 280.002c0 10 -0.331055 28 -0.998047 54c-2.66699 22.667 -12.334 41.834 -29.001 57.501s-36 23.5 -58 23.5c-22.667 0 -42.834 -8 -60.501 -24
s-27.5 -34.833 -29.5 -56.5s-3 -39.834 -3 -54.501h181z" />
    <glyph glyph-name="eacute" unicode="&#xe9;" horiz-adv-x="437" 
d="M290 619c-4 -4.66699 -39 -38 -105 -100l-36 26l64 133c8 16.667 22.333 25 43 25c10 0 19.333 -3 28 -9c14 -10 21 -23.333 21 -40c0 -14 -5 -25.667 -15 -35zM395 209l-264.999 0.00195312c0 -23.333 1.66699 -46 5 -68s13.333 -40.667 30 -56s36.334 -23 59.001 -23
c39.333 0 73.666 17.333 102.999 52l48 -40c-30.667 -56 -81 -84 -151 -84c-46 0 -85.333 14.167 -118 42.5s-50.667 64.166 -54 107.499c-3.33301 38.667 -5 68.667 -5 90c0 43.333 1.66699 78.666 5 105.999c5.33301 43.333 24.166 79 56.499 107s70.833 42 115.5 42
c44 0 81.5 -13.833 112.5 -41.5s49.5 -63.5 55.5 -107.5c2 -16 3 -51 3 -105v-22zM312.001 280.002c0 10 -0.331055 28 -0.998047 54c-2.66699 22.667 -12.334 41.834 -29.001 57.501s-36 23.5 -58 23.5c-22.667 0 -42.834 -8 -60.501 -24s-27.5 -34.833 -29.5 -56.5
s-3 -39.834 -3 -54.501h181z" />
    <glyph glyph-name="ecircumflex" unicode="&#xea;" horiz-adv-x="437" 
d="M342 547l-37 -26l-82 94l-81 -94l-38 26l68 130c1.33301 2.66699 3 5.33398 5 8.00098h92c2 -2.66699 3.66699 -5.33398 5 -8.00098zM395 209l-264.999 0.00195312c0 -23.333 1.66699 -46 5 -68s13.333 -40.667 30 -56s36.334 -23 59.001 -23
c39.333 0 73.666 17.333 102.999 52l48 -40c-30.667 -56 -81 -84 -151 -84c-46 0 -85.333 14.167 -118 42.5s-50.667 64.166 -54 107.499c-3.33301 38.667 -5 68.667 -5 90c0 43.333 1.66699 78.666 5 105.999c5.33301 43.333 24.166 79 56.499 107s70.833 42 115.5 42
c44 0 81.5 -13.833 112.5 -41.5s49.5 -63.5 55.5 -107.5c2 -16 3 -51 3 -105v-22zM312.001 280.002c0 10 -0.331055 28 -0.998047 54c-2.66699 22.667 -12.334 41.834 -29.001 57.501s-36 23.5 -58 23.5c-22.667 0 -42.834 -8 -60.501 -24s-27.5 -34.833 -29.5 -56.5
s-3 -39.834 -3 -54.501h181z" />
    <glyph glyph-name="edieresis" unicode="&#xeb;" horiz-adv-x="437" 
d="M365 612c0 -14.667 -5.5 -27.167 -16.5 -37.5s-23.833 -15.5 -38.5 -15.5c-15.333 0 -28.333 5.16699 -39 15.5s-16 22.833 -16 37.5s5.33301 27.334 16 38.001s23.667 16 39 16c14.667 0 27.5 -5.33301 38.5 -16s16.5 -23.334 16.5 -38.001zM191 612
c0 -14.667 -5.33301 -27.167 -16 -37.5s-23.667 -15.5 -39 -15.5s-28.333 5.16699 -39 15.5s-16 22.833 -16 37.5s5.33301 27.334 16 38.001s23.667 16 39 16s28.333 -5.33301 39 -16s16 -23.334 16 -38.001zM395 209l-264.999 0.00195312c0 -23.333 1.66699 -46 5 -68
s13.333 -40.667 30 -56s36.334 -23 59.001 -23c39.333 0 73.666 17.333 102.999 52l48 -40c-30.667 -56 -81 -84 -151 -84c-46 0 -85.333 14.167 -118 42.5s-50.667 64.166 -54 107.499c-3.33301 38.667 -5 68.667 -5 90c0 43.333 1.66699 78.666 5 105.999
c5.33301 43.333 24.166 79 56.499 107s70.833 42 115.5 42c44 0 81.5 -13.833 112.5 -41.5s49.5 -63.5 55.5 -107.5c2 -16 3 -51 3 -105v-22zM312.001 280.002c0 10 -0.331055 28 -0.998047 54c-2.66699 22.667 -12.334 41.834 -29.001 57.501s-36 23.5 -58 23.5
c-22.667 0 -42.834 -8 -60.501 -24s-27.5 -34.833 -29.5 -56.5s-3 -39.834 -3 -54.501h181z" />
    <glyph glyph-name="igrave" unicode="&#xec;" horiz-adv-x="261" 
d="M196 545l-35.002 -26l-106 100c-10 9.33301 -15 21 -15 35c0 16.667 7 30 21 40c8.66699 6 18.334 9 29.001 9c20.667 0 35.334 -9 44.001 -27c3.33301 -6 24 -49.667 62 -131zM197.998 0h-83v403h-52v72h135v-475z" />
    <glyph glyph-name="iacute" unicode="&#xed;" horiz-adv-x="267" 
d="M216 619l-105.001 -100l-36 26l64 133c8 16.667 22 25 42 25c10.667 0 20.334 -3 29.001 -9c14 -10 21 -23.333 21 -40c0 -14 -5 -25.667 -15 -35zM197.999 0h-82v403h-52v72h134v-475z" />
    <glyph glyph-name="icircumflex" unicode="&#xee;" horiz-adv-x="268" 
d="M260 547l-37 -26l-82 94l-81 -94l-38 26l68 130c1.33301 2.66699 3 5.33398 5 8.00098h92c1.33301 -2.66699 3 -5.33398 5 -8.00098zM198 0h-83v403h-52v72h135v-475z" />
    <glyph glyph-name="idieresis" unicode="&#xef;" horiz-adv-x="270" 
d="M288 612c0 -14.667 -5.5 -27.167 -16.5 -37.5s-23.833 -15.5 -38.5 -15.5c-15.333 0 -28.333 5.16699 -39 15.5s-16 22.833 -16 37.5s5.33301 27.334 16 38.001s23.667 16 39 16c14.667 0 27.5 -5.33301 38.5 -16s16.5 -23.334 16.5 -38.001zM114 612
c0 -14.667 -5.33301 -27.167 -16 -37.5s-23.667 -15.5 -39 -15.5s-28.333 5.16699 -39 15.5s-16 22.833 -16 37.5s5.33301 27.334 16 38.001s23.667 16 39 16s28.333 -5.33301 39 -16s16 -23.334 16 -38.001zM197 0h-82v403h-52v72h134v-475z" />
    <glyph glyph-name="eth" unicode="&#xf0;" horiz-adv-x="473" 
d="M428 668l-62.998 -43.999c38 -67.333 57 -173 57 -317c0 -93.333 -9 -163 -27 -209c-28.667 -72 -82.334 -108 -161.001 -108c-68 0 -118 26 -150 78c-26 42 -39 99 -39 171c0 166.667 61.333 250 184 250c43.333 0 81.333 -17.667 114 -53
c-4 58.667 -16 107.667 -36 147l-68 -47l-35 50l67 47c-20.667 21.333 -45.334 37.666 -74.001 48.999l23 64c44 -16 80.667 -40 110 -72l63 44zM342.002 239.001c0 115.333 -36 173 -108 173c-46.667 0 -78.667 -18.667 -96 -56c-11.333 -24.667 -17 -63.667 -17 -117
c0 -117.333 37.667 -176 113 -176c72 0 108 58.667 108 176z" />
    <glyph glyph-name="ntilde" unicode="&#xf1;" horiz-adv-x="483" 
d="M400 640c-7.33301 -23.333 -18.666 -42.667 -33.999 -58c-17.333 -16.667 -36.666 -25 -57.999 -25c-16 0 -35.167 6 -57.5 18s-37.5 18 -45.5 18c-20.667 0 -35.667 -11 -45 -33l-48 24c7.33301 22.667 19.166 42 35.499 58s35.166 24 56.499 24
c14.667 0 33.5 -6 56.5 -18s38.5 -18 46.5 -18c20 0 35 11 45 33zM421 -0.000976562h-81.999v238c0 38 -1.5 69.167 -4.5 93.5s-11.5 44 -25.5 59s-31.667 22.5 -53 22.5c-22.667 0 -40.834 -7.33301 -54.501 -22s-21.167 -34 -22.5 -58c-2.66699 -31.333 -4 -63 -4 -95
v-238h-82v344c0 33.333 -7.66699 62.666 -23 87.999l-7 12l61 40c2.66699 -2 6 -4.66699 10 -8c12 -10 20 -24.667 24 -44c25.333 34.667 58 52.334 98 53.001c42.667 0.666992 79 -13.333 109 -42s47.333 -64.667 52 -108c2.66699 -30.667 4 -63 4 -97v-238z" />
    <glyph glyph-name="ograve" unicode="&#xf2;" horiz-adv-x="454" 
d="M325 545l-36.002 -26l-105 100c-10 9.33301 -15 21 -15 35c0 16.667 6.66699 30 20 40c8.66699 6 18.334 9 29.001 9c20.667 0 35.334 -9 44.001 -27c3.33301 -6 24.333 -49.667 63 -131zM411.998 238c0 -30.667 -1.66602 -63.335 -4.99902 -98.002
c-4 -43.333 -22.333 -79.166 -55 -107.499s-71.334 -42.5 -116.001 -42.5c-45.333 0 -84.333 14.167 -117 42.5s-51 64.166 -55 107.499c-3.33301 34.667 -5 67.334 -5 98.001c0 40.667 1.33301 73.334 4 98.001c5.33301 42.667 24.333 78.167 57 106.5
s71.334 42.5 116.001 42.5c44 0 82.167 -14.167 114.5 -42.5s51.166 -63.833 56.499 -106.5c3.33301 -27.333 5 -60 5 -98zM329.999 237.999c0 41.333 -1.5 72.999 -4.5 94.999s-13.167 40.833 -30.5 56.5s-37 23.5 -59 23.5c-22.667 0 -42.667 -7.83301 -60 -23.5
s-27.333 -34.5 -30 -56.5c-3.33301 -24.667 -5 -56.334 -5 -95.001c0 -39.333 1.5 -70.666 4.5 -93.999s13.167 -42.666 30.5 -57.999s37.333 -23 60 -23c22 0 41.667 7.66699 59 23s27.5 34 30.5 56s4.5 54 4.5 96z" />
    <glyph glyph-name="oacute" unicode="&#xf3;" horiz-adv-x="454" 
d="M304 619l-105.001 -100l-36 26l64 133c8 16.667 22 25 42 25c10.667 0 20.334 -3 29.001 -9c13.333 -10 20 -23.333 20 -40c0 -14 -4.66699 -25.667 -14 -35zM411.999 238c0 -30.667 -1.66602 -63.335 -4.99902 -98.002c-4 -43.333 -22.333 -79.166 -55 -107.499
s-71.334 -42.5 -116.001 -42.5c-45.333 0 -84.333 14.167 -117 42.5s-51 64.166 -55 107.499c-3.33301 34.667 -5 67.334 -5 98.001c0 40.667 1.33301 73.334 4 98.001c5.33301 42.667 24.333 78.167 57 106.5s71.334 42.5 116.001 42.5c44 0 82.167 -14.167 114.5 -42.5
s51.166 -63.833 56.499 -106.5c3.33301 -27.333 5 -60 5 -98zM330 237.999c0 41.333 -1.5 72.999 -4.5 94.999s-13.167 40.833 -30.5 56.5s-37 23.5 -59 23.5c-22.667 0 -42.667 -7.83301 -60 -23.5s-27.333 -34.5 -30 -56.5c-3.33301 -24.667 -5 -56.334 -5 -95.001
c0 -39.333 1.5 -70.666 4.5 -93.999s13.167 -42.666 30.5 -57.999s37.333 -23 60 -23c22 0 41.667 7.66699 59 23s27.5 34 30.5 56s4.5 54 4.5 96z" />
    <glyph glyph-name="ocircumflex" unicode="&#xf4;" horiz-adv-x="454" 
d="M355 547l-38 -26l-81 94l-82 -94l-37 26l68 130c1.33301 2.66699 3 5.33398 5 8.00098h91c2 -2.66699 3.66699 -5.33398 5 -8.00098zM412 238c0 -30.667 -1.66602 -63.335 -4.99902 -98.002c-4 -43.333 -22.333 -79.166 -55 -107.499s-71.334 -42.5 -116.001 -42.5
c-45.333 0 -84.333 14.167 -117 42.5s-51 64.166 -55 107.499c-3.33301 34.667 -5 67.334 -5 98.001c0 40.667 1.33301 73.334 4 98.001c5.33301 42.667 24.333 78.167 57 106.5s71.334 42.5 116.001 42.5c44 0 82.167 -14.167 114.5 -42.5s51.166 -63.833 56.499 -106.5
c3.33301 -27.333 5 -60 5 -98zM330.001 237.999c0 41.333 -1.5 72.999 -4.5 94.999s-13.167 40.833 -30.5 56.5s-37 23.5 -59 23.5c-22.667 0 -42.667 -7.83301 -60 -23.5s-27.333 -34.5 -30 -56.5c-3.33301 -24.667 -5 -56.334 -5 -95.001
c0 -39.333 1.5 -70.666 4.5 -93.999s13.167 -42.666 30.5 -57.999s37.333 -23 60 -23c22 0 41.667 7.66699 59 23s27.5 34 30.5 56s4.5 54 4.5 96z" />
    <glyph glyph-name="otilde" unicode="&#xf5;" horiz-adv-x="454" 
d="M380 640c-7.33301 -23.333 -19.3311 -43 -35.998 -59s-35.667 -24 -57 -24c-15.333 0 -34.166 6 -56.499 18s-37.833 18 -46.5 18c-20 0 -34.667 -11 -44 -33l-49 24c7.33301 22.667 19.166 42 35.499 58s35.166 24 56.499 24c14.667 0 33.667 -6 57 -18
s38.666 -18 45.999 -18c20.667 0 35.667 11 45 33zM412.002 238c0 -30.667 -1.66602 -63.335 -4.99902 -98.002c-4 -43.333 -22.333 -79.166 -55 -107.499s-71.334 -42.5 -116.001 -42.5c-45.333 0 -84.333 14.167 -117 42.5s-51 64.166 -55 107.499
c-3.33301 34.667 -5 67.334 -5 98.001c0 40.667 1.33301 73.334 4 98.001c5.33301 42.667 24.333 78.167 57 106.5s71.334 42.5 116.001 42.5c44 0 82.167 -14.167 114.5 -42.5s51.166 -63.833 56.499 -106.5c3.33301 -27.333 5 -60 5 -98zM330.003 237.999
c0 41.333 -1.5 72.999 -4.5 94.999s-13.167 40.833 -30.5 56.5s-37 23.5 -59 23.5c-22.667 0 -42.667 -7.83301 -60 -23.5s-27.333 -34.5 -30 -56.5c-3.33301 -24.667 -5 -56.334 -5 -95.001c0 -39.333 1.5 -70.666 4.5 -93.999s13.167 -42.666 30.5 -57.999
s37.333 -23 60 -23c22 0 41.667 7.66699 59 23s27.5 34 30.5 56s4.5 54 4.5 96z" />
    <glyph glyph-name="odieresis" unicode="&#xf6;" horiz-adv-x="454" 
d="M377 612c0 -14.667 -5.5 -27.167 -16.5 -37.5s-24.167 -15.5 -39.5 -15.5c-14.667 0 -27.5 5.16699 -38.5 15.5s-16.5 22.833 -16.5 37.5s5.5 27.334 16.5 38.001s23.833 16 38.5 16c15.333 0 28.5 -5.33301 39.5 -16s16.5 -23.334 16.5 -38.001zM203 612
c0 -14.667 -5.33301 -27.167 -16 -37.5s-23.667 -15.5 -39 -15.5s-28.5 5.16699 -39.5 15.5s-16.5 22.833 -16.5 37.5s5.5 27.334 16.5 38.001s24.167 16 39.5 16s28.333 -5.33301 39 -16s16 -23.334 16 -38.001zM412 238c0 -30.667 -1.66602 -63.335 -4.99902 -98.002
c-4 -43.333 -22.333 -79.166 -55 -107.499s-71.334 -42.5 -116.001 -42.5c-45.333 0 -84.333 14.167 -117 42.5s-51 64.166 -55 107.499c-3.33301 34.667 -5 67.334 -5 98.001c0 40.667 1.33301 73.334 4 98.001c5.33301 42.667 24.333 78.167 57 106.5
s71.334 42.5 116.001 42.5c44 0 82.167 -14.167 114.5 -42.5s51.166 -63.833 56.499 -106.5c3.33301 -27.333 5 -60 5 -98zM330.001 237.999c0 41.333 -1.5 72.999 -4.5 94.999s-13.167 40.833 -30.5 56.5s-37 23.5 -59 23.5c-22.667 0 -42.667 -7.83301 -60 -23.5
s-27.333 -34.5 -30 -56.5c-3.33301 -24.667 -5 -56.334 -5 -95.001c0 -39.333 1.5 -70.666 4.5 -93.999s13.167 -42.666 30.5 -57.999s37.333 -23 60 -23c22 0 41.667 7.66699 59 23s27.5 34 30.5 56s4.5 54 4.5 96z" />
    <glyph glyph-name="oslash" unicode="&#xf8;" horiz-adv-x="454" 
d="M412 238c0 -30.667 -1.66602 -63.3369 -4.99902 -98.0039c-4 -43.333 -22.333 -79.166 -55 -107.499s-71.334 -42.5 -116.001 -42.5c-16.667 0 -32.334 2 -47.001 6l-21 -64l-57 19l23 70c-42 28.667 -65.333 68.334 -70 119.001c-3.33301 34.667 -5 67.334 -5 98.001
c0 40.667 1.33301 73.334 4 98.001c5.33301 42.667 24.333 78.167 57 106.5s71.334 42.5 116.001 42.5c14.667 0 30 -2 46 -6l21 64l57 -18l-23 -72c40.667 -28.667 64 -67.667 70 -117c3.33301 -27.333 5 -60 5 -98zM330.001 237.997c0 40.667 -0.333008 63.333 -1 68
c-2 28.667 -8.33301 50 -19 64l-99 -304c6.66699 -2 15 -3 25 -3c22 0 41.667 7.66699 59 23s27.5 34 30.5 56s4.5 54 4.5 96zM259.001 408.996c-8 2.66699 -15.667 4.00195 -23 4.00195c-22.667 0 -42.667 -7.83301 -60 -23.5s-27.333 -34.5 -30 -56.5
c-3.33301 -24.667 -5 -56.334 -5 -95.001c0 -39.333 1.66699 -71 5 -95c1.33301 -14.667 6.33301 -27.334 15 -38.001z" />
    <glyph glyph-name="ugrave" unicode="&#xf9;" horiz-adv-x="445" 
d="M300 545l-36.002 -26l-105 100c-10 9.33301 -15 21 -15 35c0 16.667 6.66699 30 20 40c8.66699 6 18.334 9 29.001 9c20.667 0 35.334 -9 44.001 -27c3.33301 -6 24.333 -49.667 63 -131zM417.998 32l-61.001 -41.001c-6 4.66699 -9.33301 7.33398 -10 8.00098
c-13.333 12 -21.666 27 -24.999 45c-25.333 -35.333 -57.666 -53.333 -96.999 -54c-42.667 -0.666992 -79.167 13.333 -109.5 42s-47.5 64.667 -51.5 108c-3.33301 34 -5 66.667 -5 98v237h82v-237c0 -38.667 1.5 -70 4.5 -94s11.5 -43.5 25.5 -58.5s32 -22.5 54 -22.5
c46.667 0 72 26.667 76 80c2.66699 35.333 4 67 4 95v237h83v-343c0 -34 7.66699 -63.667 23 -89c1.33301 -3.33301 3.66602 -7 6.99902 -11z" />
    <glyph glyph-name="uacute" unicode="&#xfa;" horiz-adv-x="445" 
d="M291 619l-105.001 -100l-36 26l64 133c8 16.667 22 25 42 25c10.667 0 20.334 -3 29.001 -9c14 -10 21 -23.333 21 -40c0 -14 -5 -25.667 -15 -35zM417.999 32l-61.001 -41.001c-6 4.66699 -9.33301 7.33398 -10 8.00098c-13.333 12 -21.666 27 -24.999 45
c-25.333 -35.333 -57.666 -53.333 -96.999 -54c-42.667 -0.666992 -79.167 13.333 -109.5 42s-47.5 64.667 -51.5 108c-3.33301 34 -5 66.667 -5 98v237h82v-237c0 -38.667 1.5 -70 4.5 -94s11.5 -43.5 25.5 -58.5s32 -22.5 54 -22.5c46.667 0 72 26.667 76 80
c2.66699 35.333 4 67 4 95v237h83v-343c0 -34 7.66699 -63.667 23 -89c1.33301 -3.33301 3.66602 -7 6.99902 -11z" />
    <glyph glyph-name="ucircumflex" unicode="&#xfb;" horiz-adv-x="445" 
d="M341 547l-37 -26l-82 94l-81 -94l-38 26l68 130c1.33301 2.66699 3 5.33398 5 8.00098h92c2 -2.66699 3.66699 -5.33398 5 -8.00098zM418 32l-61.001 -41.001c-6 4.66699 -9.33301 7.33398 -10 8.00098c-13.333 12 -21.666 27 -24.999 45
c-25.333 -35.333 -57.666 -53.333 -96.999 -54c-42.667 -0.666992 -79.167 13.333 -109.5 42s-47.5 64.667 -51.5 108c-3.33301 34 -5 66.667 -5 98v237h82v-237c0 -38.667 1.5 -70 4.5 -94s11.5 -43.5 25.5 -58.5s32 -22.5 54 -22.5c46.667 0 72 26.667 76 80
c2.66699 35.333 4 67 4 95v237h83v-343c0 -34 7.66699 -63.667 23 -89c1.33301 -3.33301 3.66602 -7 6.99902 -11z" />
    <glyph glyph-name="udieresis" unicode="&#xfc;" horiz-adv-x="445" 
d="M365 612c0 -14.667 -5.33301 -27.167 -16 -37.5s-23.667 -15.5 -39 -15.5s-28.333 5.16699 -39 15.5s-16 22.833 -16 37.5s5.33301 27.334 16 38.001s23.667 16 39 16s28.333 -5.33301 39 -16s16 -23.334 16 -38.001zM191 612c0 -14.667 -5.33301 -27.167 -16 -37.5
s-23.667 -15.5 -39 -15.5s-28.333 5.16699 -39 15.5s-16 22.833 -16 37.5s5.5 27.334 16.5 38.001s23.833 16 38.5 16c15.333 0 28.333 -5.33301 39 -16s16 -23.334 16 -38.001zM418 32l-61.001 -41.001c-6 4.66699 -9.33301 7.33398 -10 8.00098
c-13.333 12 -21.666 27 -24.999 45c-25.333 -35.333 -57.666 -53.333 -96.999 -54c-42.667 -0.666992 -79.167 13.333 -109.5 42s-47.5 64.667 -51.5 108c-3.33301 34 -5 66.667 -5 98v237h82v-237c0 -38.667 1.5 -70 4.5 -94s11.5 -43.5 25.5 -58.5s32 -22.5 54 -22.5
c46.667 0 72 26.667 76 80c2.66699 35.333 4 67 4 95v237h83v-343c0 -34 7.66699 -63.667 23 -89c1.33301 -3.33301 3.66602 -7 6.99902 -11z" />
    <glyph glyph-name="yacute" unicode="&#xfd;" horiz-adv-x="439" 
d="M384 8c0 -20 -1.66504 -46.667 -4.99805 -80c-4.66699 -44.667 -22.334 -80.5 -53.001 -107.5s-68.667 -40.5 -114 -40.5c-56.667 0 -100.667 24.333 -132 73c-2 3.33301 -3.33301 6 -4 8l57 38c3.33301 -5.33301 9.66602 -13.333 18.999 -24
c17.333 -15.333 36.666 -23 57.999 -23c22.667 0 41.834 7 57.501 21s25.5 32.333 29.5 55c2.66699 20 4 43.333 4 70v34c-20 -27.333 -46.667 -41.333 -80 -42c-42.667 -0.666992 -79.167 13.333 -109.5 42s-47.5 64.667 -51.5 108c-3.33301 34 -5 66.667 -5 98v237h83
v-237c0 -38.667 1.33301 -70 4 -94s11.167 -43.5 25.5 -58.5s32.166 -22.5 53.499 -22.5c46.667 0 72.334 27 77.001 81c2 30 3 61.333 3 94v237h83v-467zM313.002 619l-105.001 -100l-36 26l64 133c8 16.667 22 25 42 25c10.667 0 20.334 -3 29.001 -9
c14 -10 21 -23.333 21 -40c0 -14 -5 -25.667 -15 -35z" />
    <glyph glyph-name="thorn" unicode="&#xfe;" horiz-adv-x="454" 
d="M409 237c0 -37.333 -1.33301 -69.668 -4 -97.001c-4 -42.667 -22.5 -78.5 -55.5 -107.5s-70.833 -43.167 -113.5 -42.5c-38 0.666992 -67.333 14.667 -88 42v-244h-82v937h82v-283c20.667 26.667 50 40.334 88 41.001c42.667 0.666992 80.5 -13.5 113.5 -42.5
s51.5 -64.833 55.5 -107.5c2.66699 -27.333 4 -59.333 4 -96zM328 236.998c0 34 -1.66699 65.001 -5 93.001c-3.33301 22.667 -13.333 41.667 -30 57s-35.667 23 -57 23c-23.333 0 -42.833 -7.5 -58.5 -22.5s-24.5 -34.167 -26.5 -57.5c-2 -27.333 -3 -58.333 -3 -93
c0 -35.333 1 -66.333 3 -93c2 -24 10.833 -43.5 26.5 -58.5s35.167 -22.5 58.5 -22.5c21.333 0 40.333 7.66699 57 23s26.667 34.666 30 57.999c3.33301 27.333 5 58.333 5 93z" />
    <glyph glyph-name="ydieresis" unicode="&#xff;" horiz-adv-x="458" 
d="M381 612c0 -14.667 -5.33301 -27.167 -16 -37.5s-23.667 -15.5 -39 -15.5s-28.333 5.16699 -39 15.5s-16 22.833 -16 37.5s5.33301 27.334 16 38.001s23.667 16 39 16s28.333 -5.33301 39 -16s16 -23.334 16 -38.001zM207 612c0 -14.667 -5.33301 -27.167 -16 -37.5
s-23.667 -15.5 -39 -15.5c-14.667 0 -27.5 5.16699 -38.5 15.5s-16.5 22.833 -16.5 37.5s5.5 27.334 16.5 38.001s23.833 16 38.5 16c15.333 0 28.333 -5.33301 39 -16s16 -23.334 16 -38.001zM403 8c0 -20 -1.66504 -46.667 -4.99805 -80
c-4.66699 -44.667 -22.334 -80.5 -53.001 -107.5s-68.667 -40.5 -114 -40.5c-56.667 0 -100.667 24.333 -132 73c-2 3.33301 -3.33301 6 -4 8l57 38c3.33301 -5.33301 9.66602 -13.333 18.999 -24c17.333 -15.333 36.666 -23 57.999 -23c22.667 0 41.834 7 57.501 21
s25.5 32.333 29.5 55c2.66699 20 4 43.333 4 70v34c-20 -27.333 -46.667 -41.333 -80 -42c-42.667 -0.666992 -79.167 13.333 -109.5 42s-47.5 64.667 -51.5 108c-3.33301 34 -5 66.667 -5 98v237h83v-237c0 -38.667 1.33301 -70 4 -94s11.167 -43.5 25.5 -58.5
s32.166 -22.5 53.499 -22.5c46.667 0 72.334 27 77.001 81c2 30 3 61.333 3 94v237h83v-467z" />
    <glyph glyph-name="dotlessi" unicode="&#x131;" horiz-adv-x="269" 
d="M199 0h-83v403h-52v72h135v-475z" />
    <glyph glyph-name="Lslash" unicode="&#x141;" horiz-adv-x="461" 
d="M275 404l-88 -55v-269h234v-80h-324v292l-39 -25l-38 61l77 48v349h90v-292l50 31z" />
    <glyph glyph-name="lslash" unicode="&#x142;" horiz-adv-x="298" 
d="M270 404l-87.001 -54.999v-102c0 -36 1.66699 -67.667 5 -95c2.66699 -22.667 11 -41.167 25 -55.5s30.667 -22.833 50 -25.5c6.66699 -1.33301 13.334 -2 20.001 -2v-70c-2 -0.666992 -5.66699 -1.33398 -11 -2.00098c-43.333 -0.666992 -81 13.5 -113 42.5
s-50 65.167 -54 108.5c-2.66699 30 -4 63 -4 99v51l-48 -31l-38 61l86 54v271h-53v72h135v-292l49 31z" />
    <glyph glyph-name="OE" unicode="&#x152;" horiz-adv-x="695" 
d="M662 0l-353 0.000976562c-60.667 0 -112.5 18.167 -155.5 54.5s-68.167 84.166 -75.5 143.499c-4 32.667 -6 87.334 -6 164.001c0 75.333 2 129.666 6 162.999c7.33301 58.667 32.5 106.667 75.5 144s94.833 56 155.5 56h343v-80h-253v-231h233v-80h-233v-253h263v-81z
M309 81.001l-0.000976562 563.997c-41.333 0 -74.333 -12.667 -99 -38s-39 -58.666 -43 -99.999c-3.33301 -37.333 -5 -85.666 -5 -144.999c0 -69.333 2.33301 -122.666 7 -159.999s19.834 -66.833 45.501 -88.5s57.167 -32.5 94.5 -32.5z" />
    <glyph glyph-name="oe" unicode="&#x153;" horiz-adv-x="716" 
d="M673 209l-264.003 -0.000976562c0 -26 1.33301 -48.667 4 -68c3.33301 -22.667 13.333 -41.5 30 -56.5s36.334 -22.5 59.001 -22.5c28.667 0 53 7.66699 73 23c11.333 8 21.333 17.667 30 29l48 -41c-30 -55.333 -80.333 -83 -151 -83c-59.333 0 -104.333 21.667 -135 65
c-31.333 -43.333 -75.666 -65 -132.999 -65c-45.333 0 -84.5 14.333 -117.5 43s-50.833 64.334 -53.5 107.001c-0.666992 0 -1 4.66699 -1 14c-2 29.333 -3 57.333 -3 84c0 43.333 1.33301 76 4 98c4.66699 42.667 23.167 78.167 55.5 106.5s70.833 42.5 115.5 42.5
c58 0 102.667 -22 134 -66c30.667 44 75.334 66 134.001 66c44 0 81.5 -14 112.5 -42s49.5 -63.667 55.5 -107c2 -19.333 3 -54.333 3 -105v-22zM590.997 279.999c0 21.333 -0.666016 39.333 -1.99902 54c-2 22.667 -11.5 41.834 -28.5 57.501s-36.5 23.5 -58.5 23.5
c-22.667 0 -42.834 -8 -60.501 -24s-27.5 -34.833 -29.5 -56.5s-3 -39.834 -3 -54.501h182zM326.998 237.999c0 44 -1.33301 75.665 -4 94.998c-2.66699 22 -12.667 40.833 -30 56.5s-37 23.5 -59 23.5s-41.667 -7.83301 -59 -23.5s-27.333 -34.5 -30 -56.5
c-2.66699 -24.667 -4 -56.334 -4 -95.001c0 -39.333 1.33301 -70.666 4 -93.999s12.667 -42.666 30 -57.999s37 -23 59 -23c22.667 0 42.5 7.66699 59.5 23s26.833 34.333 29.5 57c2.66699 18.667 4 50.334 4 95.001z" />
    <glyph glyph-name="Scaron" unicode="&#x160;" horiz-adv-x="477" 
d="M432 178c0 -52.667 -18.9971 -97.167 -56.9971 -133.5s-84.667 -54.5 -140 -54.5c-86.667 0 -151.667 36.667 -195 110l60 42c8 -10 17.333 -20 28 -30c29.333 -27.333 65 -41 107 -41c27.333 0 52.166 10.333 74.499 31s33.5 46 33.5 76c0 36 -15 68 -45 96
c-13.333 12.667 -45 35.334 -95 68.001c-52.667 33.333 -89.334 62 -110.001 86c-32 37.333 -48 80.666 -48 129.999c0 48 19.5 89.5 58.5 124.5s84.167 52.5 135.5 52.5c72 -0.666992 130.667 -29 176 -85l-53 -50c-40 36.667 -80.333 55 -121 55
c-28 0 -52.667 -9.33301 -74 -28s-32 -41.667 -32 -69c0 -34.667 13.333 -65 40 -91c12 -12 41 -32.333 87 -61c57.333 -36.667 96.666 -66.667 117.999 -90c34.667 -38.667 52 -84.667 52 -138zM359.003 919l-69 -131c-1.33301 -2.66699 -3 -5.33398 -5 -8.00098h-91
c-2 2.66699 -3.66699 5.33398 -5 8.00098l-68 131l37 26l82 -95l81 95z" />
    <glyph glyph-name="scaron" unicode="&#x161;" horiz-adv-x="379" 
d="M339 121c0 -36.667 -14.499 -67.667 -43.499 -93s-64.5 -38 -106.5 -38c-67.333 0 -117 25.667 -149 77c-2.66699 3.33301 -4.33398 6.33301 -5.00098 9l58 38c28.667 -34.667 60.667 -52 96 -52c16.667 0 32 5.66699 46 17s21 24.666 21 39.999
c0 24.667 -18.333 48.334 -55 71.001l-102 64c-36.667 30 -55 66 -55 108c0 34 14.333 63 43 87s62.667 36 102 36c56.667 0 101.667 -19.667 135 -59c2 -2.66699 3.66699 -5 5 -7l-50 -45c-10 8 -19.667 15.333 -29 22c-18 12 -37.667 18 -59 18
c-16.667 0 -31.5 -5 -44.5 -15s-19.5 -21.667 -19.5 -35c0 -25.333 18 -50 54 -74l103 -65c36.667 -30 55 -64.667 55 -104zM309.001 659l-69 -130.001c-1.33301 -3.33301 -3 -6 -5 -8h-91c-2 2.66699 -3.66699 5.33398 -5 8.00098l-68 130l37 26l82 -94l81 94z" />
    <glyph glyph-name="Ydieresis" unicode="&#x178;" horiz-adv-x="555" 
d="M406 862c0 -14.667 -5.5 -27.167 -16.5 -37.5s-24.167 -15.5 -39.5 -15.5s-28.333 5.16699 -39 15.5s-16 22.833 -16 37.5s5.33301 27.334 16 38.001s23.667 16 39 16s28.5 -5.33301 39.5 -16s16.5 -23.334 16.5 -38.001zM232 862c0 -14.667 -5.5 -27.167 -16.5 -37.5
s-23.833 -15.5 -38.5 -15.5c-15.333 0 -28.5 5.16699 -39.5 15.5s-16.5 22.833 -16.5 37.5s5.5 27.334 16.5 38.001s24.167 16 39.5 16c14.667 0 27.5 -5.33301 38.5 -16s16.5 -23.334 16.5 -38.001zM503 695l-195 -374v-321h-90v321l-194 374l77 39l162 -322l162 322z" />
    <glyph glyph-name="Zcaron" unicode="&#x17d;" horiz-adv-x="516" 
d="M466 0h-406v80l302 565h-287v80h381v-80l-302 -565h312v-80zM389 919l-69 -131c-1.33301 -2.66699 -3 -5.33398 -5 -8.00098h-91c-2 2.66699 -3.66699 5.33398 -5 8.00098l-68 131l37 26l82 -95l81 95z" />
    <glyph glyph-name="zcaron" unicode="&#x17e;" horiz-adv-x="385" 
d="M345 0h-300v73l203 330h-193v72h283v-72l-203 -330h210v-73zM309 659l-69 -130.001c-1.33301 -3.33301 -3 -6 -5 -8h-91c-2 2.66699 -3.66699 5.33398 -5 8.00098l-68 130l37 26l82 -94l81 94z" />
    <glyph glyph-name="florin" unicode="&#x192;" horiz-adv-x="314" 
d="M75 496c0 16.667 1.66602 44.001 4.99902 82.001c4 42.667 21.833 78.5 53.5 107.5s69.167 43.167 112.5 42.5c3.33301 0 7.33301 -0.333008 12 -1v-70l-21 -2c-19.333 -2.66699 -36.166 -11.334 -50.499 -26.001s-22.5 -33 -24.5 -55c-2.66699 -24.667 -4 -51 -4 -79
v-20h99v-72h-99v-383c0 -147.333 -57 -221 -171 -221c-2.66699 0 -7 0.333008 -13 1v70c42 0.666992 70.667 16.667 86 48c10 22 15 56.333 15 103v475z" />
    <glyph glyph-name="circumflex" unicode="&#x2c6;" horiz-adv-x="335" 
d="M289 547l-38 -26l-81 94l-82 -94l-37 26l68 130c1.33301 2.66699 3 5.33398 5 8.00098h91c2 -2.66699 3.66699 -5.33398 5 -8.00098z" />
    <glyph glyph-name="caron" unicode="&#x2c7;" horiz-adv-x="340" 
d="M289 659l-69 -130.001c-1.33301 -3.33301 -3 -6 -5 -8h-91c-2 2.66699 -3.66699 5.33398 -5 8.00098l-68 130l37 26l82 -94l81 94z" />
    <glyph glyph-name="breve" unicode="&#x2d8;" horiz-adv-x="384" 
d="M326 666c-2.66699 -35.333 -17.001 -64.5 -43.001 -87.5s-57.333 -34.5 -94 -34.5c-36 0 -66.833 11.5 -92.5 34.5s-40.167 52.167 -43.5 87.5c10 0 34.333 0.666992 73 2c2.66699 -16.667 9.83398 -30.667 21.501 -42s25.5 -17 41.5 -17c16.667 0 31 5.66699 43 17
s19 25.333 21 42z" />
    <glyph glyph-name="dotaccent" unicode="&#x2d9;" horiz-adv-x="221" 
d="M165 612c0 -15.333 -5.5 -28.166 -16.5 -38.499s-23.833 -15.5 -38.5 -15.5c-15.333 0 -28.333 5.16699 -39 15.5s-16 23.166 -16 38.499c0 14.667 5.33301 27.167 16 37.5s23.667 15.5 39 15.5c14.667 0 27.5 -5.16699 38.5 -15.5s16.5 -22.833 16.5 -37.5z" />
    <glyph glyph-name="ring" unicode="&#x2da;" horiz-adv-x="309" 
d="M257 612c0 -26.667 -9.33301 -49 -28 -67s-41 -27 -67 -27c-26.667 0 -49.334 9.16699 -68.001 27.5s-28 40.5 -28 66.5s9.33301 48.333 28 67s41.334 28 68.001 28s49.167 -9.16699 67.5 -27.5s27.5 -40.833 27.5 -67.5zM200 612c0 10.667 -3.83301 19.998 -11.5 27.998
s-16.5 12 -26.5 12c-10.667 0 -19.834 -4 -27.501 -12s-11.5 -17.333 -11.5 -28c0 -11.333 3.83301 -20.666 11.5 -27.999s16.834 -11 27.501 -11c10 0 18.833 3.83301 26.5 11.5s11.5 16.834 11.5 27.501z" />
    <glyph glyph-name="ogonek" unicode="&#x2db;" horiz-adv-x="220" 
d="M227 -167c-0.666992 -2.66699 -3.00098 -7.33105 -7.00098 -13.998c-14.667 -26 -38.667 -39 -72 -39c-22.667 0 -42.167 7.16699 -58.5 21.5s-24.833 32.5 -25.5 54.5c-0.666992 9.33301 -1 15.666 -1 18.999c0 5.33301 0.333008 11.333 1 18c1.33301 12.667 5 24 11 34
c1.33301 4.66699 14.333 29 39 73h63l-51 -96c-4 -6.66699 -6 -16.334 -6 -29.001c0 -28.667 9.33301 -43 28 -43c8.66699 0 15.334 2.33301 20.001 7c0.666992 0 6.66699 6.66699 18 20z" />
    <glyph glyph-name="tilde" unicode="&#x2dc;" horiz-adv-x="375" 
d="M333 640c-7.33301 -23.333 -19.3311 -43 -35.998 -59s-35.667 -24 -57 -24c-16 0 -35.167 6 -57.5 18s-37.5 18 -45.5 18c-20 0 -34.667 -11 -44 -33l-49 24c7.33301 22.667 19.166 42 35.499 58s35.166 24 56.499 24c14.667 0 33.5 -6 56.5 -18s38.5 -18 46.5 -18
c20.667 0 35.667 11 45 33z" />
    <glyph glyph-name="hungarumlaut" unicode="&#x2dd;" horiz-adv-x="478" 
d="M411 619c-4.66699 -5.33301 -40.001 -38.667 -106.001 -100l-35 26l63 133c8 16.667 22.333 25 43 25c10.667 0 20.334 -3 29.001 -9c13.333 -10 20 -23.333 20 -40c0 -14 -4.66699 -25.667 -14 -35zM244.999 618.999c-4 -4.66699 -39 -38 -105 -100l-36 26l64 133
c8 16.667 22 25 42 25c11.333 0 21.333 -3 30 -9c13.333 -10 20 -23.333 20 -40c0 -14 -5 -25.667 -15 -35z" />
    <glyph glyph-name="endash" unicode="&#x2013;" horiz-adv-x="510" 
d="M455 204h-400v81h400v-81z" />
    <glyph glyph-name="emdash" unicode="&#x2014;" horiz-adv-x="736" 
d="M681 204h-626v81h626v-81z" />
    <glyph glyph-name="quoteleft" unicode="&#x2018;" horiz-adv-x="250" 
d="M192 705c-25.333 -33.333 -38.666 -68.334 -39.999 -105.001c24.667 -8.66699 37 -26 37 -52c0 -16.667 -6 -30.667 -18 -42s-26.333 -17 -43 -17c-18.667 0 -33.834 6.83301 -45.501 20.5s-17.5 29.834 -17.5 48.501c0 68 32 127 96 177z" />
    <glyph glyph-name="quoteright" unicode="&#x2019;" horiz-adv-x="251" 
d="M189 666c0 -68 -31.668 -126.999 -95.001 -176.999l-32 30c25.333 33.333 39 68.333 41 105c-25.333 8.66699 -38 26 -38 52c0 16 5.83301 29.833 17.5 41.5s26.167 17.5 43.5 17.5c18.667 0 33.834 -6.83301 45.501 -20.5s17.5 -29.834 17.5 -48.501z" />
    <glyph glyph-name="quotesinglbase" unicode="&#x201a;" horiz-adv-x="250" 
d="M197 39c0 -68 -31.668 -127.332 -95.001 -177.999l-32 31c25.333 33.333 39 68 41 104c-25.333 9.33301 -38 27 -38 53c0 16 5.83301 29.833 17.5 41.5s26.167 17.5 43.5 17.5c18.667 0 33.834 -6.83301 45.501 -20.5s17.5 -29.834 17.5 -48.501z" />
    <glyph glyph-name="quotedblleft" unicode="&#x201c;" horiz-adv-x="430" 
d="M375 705c-26 -33.333 -39.666 -68.334 -40.999 -105.001c25.333 -8.66699 38 -26 38 -52c0 -16.667 -6 -30.667 -18 -42s-26.333 -17 -43 -17c-18.667 0 -33.834 6.83301 -45.501 20.5s-17.5 29.834 -17.5 48.501c0 68 31.667 127 95 177zM192.001 704.999
c-25.333 -33.333 -39 -68.335 -41 -105.002c26 -9.33301 39 -26.666 39 -51.999c0 -16.667 -6 -30.667 -18 -42s-26.333 -17 -43 -17c-19.333 0 -34.833 6.83301 -46.5 20.5s-17.5 29.834 -17.5 48.501c0 68 32 127 96 177z" />
    <glyph glyph-name="quotedblright" unicode="&#x201d;" horiz-adv-x="434" 
d="M374 666c0 -68 -32 -126.999 -96 -176.999l-31 30c25.333 33.333 39 68.333 41 105c-25.333 8.66699 -38 26 -38 52c0 16 5.83301 29.833 17.5 41.5s26.167 17.5 43.5 17.5c18 0 33 -6.83301 45 -20.5s18 -29.834 18 -48.501zM192 666.001
c0 -68 -32 -126.999 -96 -176.999l-31 30c25.333 33.333 39 68.333 41 105c-26 8.66699 -39 26 -39 52c0 16 6 29.833 18 41.5s26.333 17.5 43 17.5c18.667 0 34 -6.83301 46 -20.5s18 -29.834 18 -48.501z" />
    <glyph glyph-name="quotedblbase" unicode="&#x201e;" horiz-adv-x="425" 
d="M374 39c0 -68 -32 -127.332 -96 -177.999l-31 31c25.333 33.333 39 68 41 104c-25.333 9.33301 -38 27 -38 53c0 16 5.83301 29.833 17.5 41.5s26.167 17.5 43.5 17.5c18 0 33 -6.83301 45 -20.5s18 -29.834 18 -48.501zM192 39.001c0 -68 -32 -127.332 -96 -177.999
l-31 31c25.333 33.333 39 68 41 104c-26 9.33301 -39 27 -39 53c0 16 6 29.833 18 41.5s26.333 17.5 43 17.5c18.667 0 34 -6.83301 46 -20.5s18 -29.834 18 -48.501z" />
    <glyph glyph-name="dagger" unicode="&#x2020;" horiz-adv-x="502" 
d="M447 436h-151v-436h-89v436h-152v81h152v208h89v-208h151v-81z" />
    <glyph glyph-name="daggerdbl" unicode="&#x2021;" horiz-adv-x="502" 
d="M447 208h-151v-208h-89v208h-152v81h152v147h-152v81h152v208h89v-208h151v-81h-151v-147h151v-81z" />
    <glyph glyph-name="bullet" unicode="&#x2022;" horiz-adv-x="496" 
d="M421 373c0 -48 -16.833 -88.833 -50.5 -122.5s-74.5 -50.5 -122.5 -50.5s-88.833 16.833 -122.5 50.5s-50.5 74.5 -50.5 122.5s16.833 88.833 50.5 122.5s74.5 50.5 122.5 50.5s88.833 -16.833 122.5 -50.5s50.5 -74.5 50.5 -122.5z" />
    <glyph glyph-name="ellipsis" unicode="&#x2026;" horiz-adv-x="650" 
d="M592 49c0 -16 -6 -29.833 -18 -41.5s-26.333 -17.5 -43 -17.5s-31 5.83301 -43 17.5s-18 25.5 -18 41.5s6 29.833 18 41.5s26.333 17.5 43 17.5s31 -5.83301 43 -17.5s18 -25.5 18 -41.5zM391 49c0 -16 -6 -29.833 -18 -41.5s-26.333 -17.5 -43 -17.5
c-17.333 0 -31.833 5.83301 -43.5 17.5s-17.5 25.5 -17.5 41.5s5.83301 29.833 17.5 41.5s26.167 17.5 43.5 17.5c16.667 0 31 -5.83301 43 -17.5s18 -25.5 18 -41.5zM189 49c0 -16 -6 -29.833 -18 -41.5s-26.333 -17.5 -43 -17.5s-31 5.83301 -43 17.5s-18 25.5 -18 41.5
s6 29.833 18 41.5s26.333 17.5 43 17.5s31 -5.83301 43 -17.5s18 -25.5 18 -41.5z" />
    <glyph glyph-name="guilsinglleft" unicode="&#x2039;" horiz-adv-x="352" 
d="M297 60l-52 -42l-190 227l190 227l52 -42l-131 -185z" />
    <glyph glyph-name="guilsinglright" unicode="&#x203a;" horiz-adv-x="352" 
d="M297 245l-189 -227l-53 42l131 185l-131 185l53 42z" />
    <glyph glyph-name="trademark" unicode="&#x2122;" horiz-adv-x="618" 
d="M563 363h-63l2 172c0 10 2 31.333 6 64c-4.66699 -27.333 -10.5 -49.333 -17.5 -66l-33.5 -81h-41l-33 81c-7.33301 16.667 -13.333 38.667 -18 66c2 -16 4 -37.333 6 -64l3 -172h-64v362h55l63 -161c6 -16 9 -27.667 9 -35c0 7.33301 2.66699 19 8 35l64 161h54v-362z
M257 669h-75v-306h-62v306h-75v56h212v-56z" />
    <glyph glyph-name="partialdiff" unicode="&#x2202;" horiz-adv-x="467" 
d="M422 307c0 -93.333 -8.99902 -163.001 -26.999 -209.001c-28.667 -72 -82.334 -108 -161.001 -108c-68 0 -118 26 -150 78c-26 42 -39 99 -39 171c0 166.667 61.333 250 184 250c43.333 0 81.333 -17.667 114 -53c-8 130 -56.667 212 -146 246l23 64
c83.333 -29.333 140.333 -89.666 171 -180.999c20.667 -61.333 31 -147.333 31 -258zM342.001 238.999c0 115.333 -36 173 -108 173c-46.667 0 -78.667 -18.667 -96 -56c-11.333 -24.667 -17 -63.667 -17 -117c0 -117.333 37.667 -176 113 -176c72 0 108 58.667 108 176z
" />
    <glyph glyph-name="integral" unicode="&#x222b;" horiz-adv-x="314" 
d="M259 658c-42 0 -70.666 -16 -85.999 -48c-10 -22 -15 -56.333 -15 -103v-487c0 -147.333 -57 -221 -171 -221c0.666992 0 -3.33301 0.333008 -12 1v70c41.333 0 69.666 16 84.999 48c10.667 22 16 56.333 16 103v487c0 147.333 56.667 221 170 221l13 -1v-70z" />
    <glyph glyph-name="fi" unicode="&#xf001;" horiz-adv-x="273" 
d="M238 657l-21.001 -1.99902c-19.333 -2.66699 -36.166 -11.334 -50.499 -26.001s-22.5 -33 -24.5 -55c-2.66699 -24.667 -4 -51 -4 -79v-20h99v-72h-99v-403h-83v496c0 16.667 1.66699 44 5 82c4 42.667 21.833 78.5 53.5 107.5s69.167 43.167 112.5 42.5
c3.33301 0 7.33301 -0.333008 12 -1v-70zM406.999 612.001c0 -14.667 -5.5 -27.167 -16.5 -37.5s-23.833 -15.5 -38.5 -15.5c-15.333 0 -28.5 5.16699 -39.5 15.5s-16.5 22.833 -16.5 37.5s5.5 27.334 16.5 38.001s24.167 16 39.5 16c14.667 0 27.5 -5.33301 38.5 -16
s16.5 -23.334 16.5 -38.001zM392.999 0.000976562h-83v403h-52v72h135v-475z" />
    <glyph glyph-name="fl" unicode="&#xf002;" horiz-adv-x="503" 
d="M503 -1c-4 -1.33301 -7.66602 -2.00098 -10.999 -2.00098c-44 0 -81.667 14.167 -113 42.5s-49.333 64.5 -54 108.5c-2.66699 26.667 -4 59.667 -4 99v406h-104c-34 0 -57 -16.333 -69 -49c-6.66699 -19.333 -10 -49 -10 -89v-35h99v-72h-99v-408h-83v516
c0 66 10.667 115.333 32 148c27.333 40.667 73.666 61 138.999 61h177v-478c0 -57.333 3.66699 -96.666 11 -117.999c14 -39.333 43.667 -59.333 89 -60v-70z" />
    <glyph glyph-name=".null" horiz-adv-x="0" 
 />
    <glyph glyph-name="nonmarkingreturn" horiz-adv-x="218" 
 />
    </font>
</defs>
</svg>
